۩ ‼ Вы находитесь на Бесплатном торрент-трекере TORRNADA.com ۩ Зарегистрируйтесь для получения полного доступа ко всем функциям сайта ! ۩ После регистрации подпишитесь на нашу рассылку в своём профиле ۩
Auto Web Pinger

 

[Цитировать]

Год выпуска: 2014-06-17
Жанр: Alternative Rock | Female Vocal
Продолжительность: 00:36:28
Тип издания: Альбом
Лейбл: Hundred Handed
Каталог №: HDHNHHI111.2
Страна: США
Треклист:
01. Not A Shot
02. Echo
03. Leave Your Mark
04. Fair-Weathered Friend
05. FireStarter
06. I Can't
07. Bed of Thorns
08. Vacancy
09. Wasted (Until I'm Gone)
10. Turn Me
11. Fall Forward
99. Intro (SinStrumental)

EAC Log

Exact Audio Copy V1.0 beta 3 from 29. August 2011
EAC extraction logfile from 14. August 2014, 12:17
Stars In Stereo /  Leave Your Mark
Used drive  : TSSTcorpCDDVDW SH-224DB   Adapter: 0  ID: 0
Read mode               : Secure
Utilize accurate stream : Yes
Defeat audio cache      : Yes
Make use of C2 pointers : No
Read offset correction                      : 6
Overread into Lead-In and Lead-Out          : No
Fill up missing offset samples with silence : Yes
Delete leading and trailing silent blocks   : No
Null samples used in CRC calculations       : Yes
Used interface                              : Native Win32 interface for Win NT & 2000
Gap handling                                : Not detected, thus appended to previous track
Used output format              : User Defined Encoder
Selected bitrate                : 1024 kBit/s
Quality                         : High
Add ID3 tag                     : No
Command line compressor         : C:\Program Files (x86)\Exact Audio Copy\Flac\flac.exe
Additional command line options : -8 -V -T "ARTIST=%artist%" -T "TITLE=%title%" -T "ALBUM=%albumtitle%" -T "DATE=%year%" -T "TRACKNUMBER=%tracknr%" -T "GENRE=%genre%" -T "PERFORMER=%albuminterpret%" -T "COMPOSER=%composer%" %haslyrics%--tag-from-file=LYRICS="%lyricsfile%"%haslyrics% -T "ALBUMARTIST=%albumartist%" -T "DISCNUMBER=%cdnumber%" -T "TOTALDISCS=%totalcds%" -T "TOTALTRACKS=%numtracks%" -T "COMMENT=%comment%" %source% -o %dest%
TOC of the extracted CD
     Track |   Start  |  Length  | Start sector | End sector
    ---------------------------------------------------------
        1  |  0:00.00 |  3:19.05 |         0    |    14929
        2  |  3:19.05 |  3:20.18 |     14930    |    29947
        3  |  6:39.23 |  3:12.31 |     29948    |    44378
        4  |  9:51.54 |  2:55.00 |     44379    |    57503
        5  | 12:46.54 |  2:48.00 |     57504    |    70103
        6  | 15:34.54 |  3:02.20 |     70104    |    83773
        7  | 18:36.74 |  2:46.43 |     83774    |    96266
        8  | 21:23.42 |  2:42.73 |     96267    |   108489
        9  | 24:06.40 |  3:08.56 |    108490    |   122645
       10  | 27:15.21 |  3:40.40 |    122646    |   139185
       11  | 30:55.61 |  4:01.26 |    139186    |   157286
       12  | 34:57.12 |  0:04.00 |    157287    |   157586
       13  | 35:01.12 |  0:04.00 |    157587    |   157886
       14  | 35:05.12 |  0:04.00 |    157887    |   158186
       15  | 35:09.12 |  0:04.00 |    158187    |   158486
       16  | 35:13.12 |  0:04.00 |    158487    |   158786
       17  | 35:17.12 |  0:04.00 |    158787    |   159086
       18  | 35:21.12 |  0:04.00 |    159087    |   159386
       19  | 35:25.12 |  0:04.00 |    159387    |   159686
       20  | 35:29.12 |  0:04.00 |    159687    |   159986
       21  | 35:33.12 |  0:04.00 |    159987    |   160286
       22  | 35:37.12 |  0:04.00 |    160287    |   160586
       23  | 35:41.12 |  0:04.00 |    160587    |   160886
       24  | 35:45.12 |  0:04.00 |    160887    |   161186
       25  | 35:49.12 |  0:04.00 |    161187    |   161486
       26  | 35:53.12 |  0:04.00 |    161487    |   161786
       27  | 35:57.12 |  0:04.00 |    161787    |   162086
       28  | 36:01.12 |  0:04.00 |    162087    |   162386
       29  | 36:05.12 |  0:04.00 |    162387    |   162686
       30  | 36:09.12 |  0:04.00 |    162687    |   162986
       31  | 36:13.12 |  0:04.00 |    162987    |   163286
       32  | 36:17.12 |  0:04.00 |    163287    |   163586
       33  | 36:21.12 |  0:04.00 |    163587    |   163886
       34  | 36:25.12 |  0:04.00 |    163887    |   164186
       35  | 36:29.12 |  0:04.00 |    164187    |   164486
       36  | 36:33.12 |  0:04.00 |    164487    |   164786
       37  | 36:37.12 |  0:04.00 |    164787    |   165086
       38  | 36:41.12 |  0:04.00 |    165087    |   165386
       39  | 36:45.12 |  0:04.00 |    165387    |   165686
       40  | 36:49.12 |  0:04.00 |    165687    |   165986
       41  | 36:53.12 |  0:04.00 |    165987    |   166286
       42  | 36:57.12 |  0:04.00 |    166287    |   166586
       43  | 37:01.12 |  0:04.00 |    166587    |   166886
       44  | 37:05.12 |  0:04.00 |    166887    |   167186
       45  | 37:09.12 |  0:04.00 |    167187    |   167486
       46  | 37:13.12 |  0:04.00 |    167487    |   167786
       47  | 37:17.12 |  0:04.00 |    167787    |   168086
       48  | 37:21.12 |  0:04.00 |    168087    |   168386
       49  | 37:25.12 |  0:04.00 |    168387    |   168686
       50  | 37:29.12 |  0:04.00 |    168687    |   168986
       51  | 37:33.12 |  0:04.00 |    168987    |   169286
       52  | 37:37.12 |  0:04.00 |    169287    |   169586
       53  | 37:41.12 |  0:04.00 |    169587    |   169886
       54  | 37:45.12 |  0:04.00 |    169887    |   170186
       55  | 37:49.12 |  0:04.00 |    170187    |   170486
       56  | 37:53.12 |  0:04.00 |    170487    |   170786
       57  | 37:57.12 |  0:04.00 |    170787    |   171086
       58  | 38:01.12 |  0:04.00 |    171087    |   171386
       59  | 38:05.12 |  0:04.00 |    171387    |   171686
       60  | 38:09.12 |  0:04.00 |    171687    |   171986
       61  | 38:13.12 |  0:04.00 |    171987    |   172286
       62  | 38:17.12 |  0:04.00 |    172287    |   172586
       63  | 38:21.12 |  0:04.00 |    172587    |   172886
       64  | 38:25.12 |  0:04.00 |    172887    |   173186
       65  | 38:29.12 |  0:04.00 |    173187    |   173486
       66  | 38:33.12 |  0:04.00 |    173487    |   173786
       67  | 38:37.12 |  0:04.00 |    173787    |   174086
       68  | 38:41.12 |  0:04.00 |    174087    |   174386
       69  | 38:45.12 |  0:04.00 |    174387    |   174686
       70  | 38:49.12 |  0:04.00 |    174687    |   174986
       71  | 38:53.12 |  0:04.00 |    174987    |   175286
       72  | 38:57.12 |  0:04.00 |    175287    |   175586
       73  | 39:01.12 |  0:04.00 |    175587    |   175886
       74  | 39:05.12 |  0:04.00 |    175887    |   176186
       75  | 39:09.12 |  0:04.00 |    176187    |   176486
       76  | 39:13.12 |  0:04.00 |    176487    |   176786
       77  | 39:17.12 |  0:04.00 |    176787    |   177086
       78  | 39:21.12 |  0:04.00 |    177087    |   177386
       79  | 39:25.12 |  0:04.00 |    177387    |   177686
       80  | 39:29.12 |  0:04.00 |    177687    |   177986
       81  | 39:33.12 |  0:04.00 |    177987    |   178286
       82  | 39:37.12 |  0:04.00 |    178287    |   178586
       83  | 39:41.12 |  0:04.00 |    178587    |   178886
       84  | 39:45.12 |  0:04.00 |    178887    |   179186
       85  | 39:49.12 |  0:04.00 |    179187    |   179486
       86  | 39:53.12 |  0:04.00 |    179487    |   179786
       87  | 39:57.12 |  0:04.00 |    179787    |   180086
       88  | 40:01.12 |  0:04.00 |    180087    |   180386
       89  | 40:05.12 |  0:04.00 |    180387    |   180686
       90  | 40:09.12 |  0:04.00 |    180687    |   180986
       91  | 40:13.12 |  0:04.00 |    180987    |   181286
       92  | 40:17.12 |  0:04.00 |    181287    |   181586
       93  | 40:21.12 |  0:04.00 |    181587    |   181886
       94  | 40:25.12 |  0:04.00 |    181887    |   182186
       95  | 40:29.12 |  0:04.00 |    182187    |   182486
       96  | 40:33.12 |  0:04.00 |    182487    |   182786
       97  | 40:37.12 |  0:04.00 |    182787    |   183086
       98  | 40:41.12 |  0:04.00 |    183087    |   183386
       99  | 40:45.12 |  1:31.29 |    183387    |   190240
Track  1
     Filename C:\my torrents\Stars In Stereo - Leave Your Mark Flac\01 - Not A Shot.wav
     Peak level 97.7 %
     Extraction speed 4.4 X
     Track quality 100.0 %
     Test CRC 0695E91C
     Copy CRC 0695E91C
     Track not present in AccurateRip database
     Copy OK
Track  2
     Filename C:\my torrents\Stars In Stereo - Leave Your Mark Flac\02 - Echo.wav
     Peak level 97.7 %
     Extraction speed 4.7 X
     Track quality 100.0 %
     Test CRC 42CCDBBF
     Copy CRC 42CCDBBF
     Track not present in AccurateRip database
     Copy OK
Track  3
     Filename C:\my torrents\Stars In Stereo - Leave Your Mark Flac\03 - Leave Your Mark.wav
     Peak level 97.7 %
     Extraction speed 5.0 X
     Track quality 100.0 %
     Test CRC E5EC5236
     Copy CRC E5EC5236
     Track not present in AccurateRip database
     Copy OK
Track  4
     Filename C:\my torrents\Stars In Stereo - Leave Your Mark Flac\04 - Fair-Weather Friend.wav
     Peak level 97.7 %
     Extraction speed 5.3 X
     Track quality 100.0 %
     Test CRC AD373B19
     Copy CRC AD373B19
     Track not present in AccurateRip database
     Copy OK
Track  5
     Filename C:\my torrents\Stars In Stereo - Leave Your Mark Flac\05 - FireStarter.wav
     Peak level 97.7 %
     Extraction speed 4.0 X
     Track quality 100.0 %
     Test CRC 7F736151
     Copy CRC 7F736151
     Track not present in AccurateRip database
     Copy OK
Track  6
     Filename C:\my torrents\Stars In Stereo - Leave Your Mark Flac\06 - I Can't.wav
     Peak level 97.7 %
     Extraction speed 4.3 X
     Track quality 100.0 %
     Test CRC FEE6E9AF
     Copy CRC FEE6E9AF
     Track not present in AccurateRip database
     Copy OK
Track  7
     Filename C:\my torrents\Stars In Stereo - Leave Your Mark Flac\07 - Bed of Thorns.wav
     Peak level 97.7 %
     Extraction speed 5.8 X
     Track quality 100.0 %
     Test CRC 847998DA
     Copy CRC 847998DA
     Track not present in AccurateRip database
     Copy OK
Track  8
     Filename C:\my torrents\Stars In Stereo - Leave Your Mark Flac\08 - Vacancy.wav
     Peak level 97.7 %
     Extraction speed 4.4 X
     Track quality 100.0 %
     Test CRC 9411FB39
     Copy CRC 9411FB39
     Track not present in AccurateRip database
     Copy OK
Track  9
     Filename C:\my torrents\Stars In Stereo - Leave Your Mark Flac\09 - Wasted (Until I'm Gone).wav
     Peak level 97.7 %
     Extraction speed 6.4 X
     Track quality 100.0 %
     Test CRC 06A1EAEB
     Copy CRC 06A1EAEB
     Track not present in AccurateRip database
     Copy OK
Track 10
     Filename C:\my torrents\Stars In Stereo - Leave Your Mark Flac\10 - Turn Me.wav
     Peak level 97.7 %
     Extraction speed 6.8 X
     Track quality 100.0 %
     Test CRC 3DB4340B
     Copy CRC 3DB4340B
     Track not present in AccurateRip database
     Copy OK
Track 11
     Filename C:\my torrents\Stars In Stereo - Leave Your Mark Flac\11 - Fall Forward.wav
     Peak level 97.7 %
     Extraction speed 5.4 X
     Track quality 100.0 %
     Test CRC BA95F09E
     Copy CRC BA95F09E
     Track not present in AccurateRip database
     Copy OK
Track 99
     Filename C:\my torrents\Stars In Stereo - Leave Your Mark Flac\99 - Intro (SinStrumental).wav
     Peak level 97.7 %
     Extraction speed 6.1 X
     Track quality 100.0 %
     Test CRC A10C04F5
     Copy CRC A10C04F5
     Track not present in AccurateRip database
     Copy OK
None of the tracks are present in the AccurateRip database
No errors occurred
End of status report
==== Log checksum EA4B357AAC93C32D2639278F01CAA23CD60ACDC42E241455D235228C0DF5AE52 ====
[small.torrnada.com].t51648.torrent
Торрент: Зарегистрирован   [ 2014-08-16 14:19 ] · E910F8DB75057C0068CDBC8F862C9FBAF2B800B2

Скачать .torrent

Скачать

12 KB

Статус: проверено
Скачан: 39 раз
Размер: 264 MB
Оценка:  - (Голосов: 0) СуперХорошоСреднеТак себеОтстой
Поблагодарили: 0  Спасибо
Поделится:


Показать сообщения:    

Текущее время: 26-Июн 21:57

Часовой пояс: UTC + 3


Вы не можете начинать темы
Вы не можете отвечать на сообщения
Вы не можете редактировать свои сообщения
Вы не можете удалять свои сообщения
Вы не можете голосовать в опросах
Вы не можете прикреплять файлы к сообщениям
Вы можете скачивать файлы

!ВНИМАНИЕ!
Сайт не предоставляет электронные версии произведений, а занимается лишь коллекционированием и каталогизацией ссылок, присылаемых и публикуемых на форуме нашими читателями. Если вы являетесь правообладателем какого-либо представленного материала и не желаете, чтобы ссылка на него находилась в нашем каталоге, свяжитесь с нами, и мы незамедлительно удалим ее. Файлы для обмена на трекере предоставлены пользователями сайта, и администрация не несет ответственности за их содержание. Просьба не заливать файлы, защищенные авторскими правами, а также файлы нелегального содержания!