۩ ‼ Вы находитесь на Бесплатном торрент-трекере TORRNADA.com ۩ Зарегистрируйтесь для получения полного доступа ко всем функциям сайта ! ۩ После регистрации подпишитесь на нашу рассылку в своём профиле ۩
Auto Web Pinger

 

[Цитировать]

Год выпуска: 2014-07-22
Жанр: Melodic Metalcore | Christian
Продолжительность: 00:37:40
Тип издания: Альбом
Лейбл: Facedown Records
Каталог №: FCD 1402
Страна: США
Треклист:
01. From Ashes
02. Lost In Apathy
03. Doomsday
04. Chaos Theory
05. Lionheart
06. On Broken Wings
07. Amber Alert
08. Renegade
09. Ecstasy
10. Still Small Voice

EAC Log

Exact Audio Copy V1.0 beta 3 from 29. August 2011
EAC extraction logfile from 12. August 2014, 23:33
War Of Ages / Supreme Chaos
Used drive  : SONY    DVD RW DRU-820A   Adapter: 1  ID: 0
Read mode               : Secure
Utilize accurate stream : Yes
Defeat audio cache      : Yes
Make use of C2 pointers : No
Read offset correction                      : 102
Overread into Lead-In and Lead-Out          : No
Fill up missing offset samples with silence : Yes
Delete leading and trailing silent blocks   : No
Null samples used in CRC calculations       : Yes
Used interface                              : Native Win32 interface for Win NT & 2000
Gap handling                                : Appended to previous track
Used output format              : User Defined Encoder
Selected bitrate                : 1024 kBit/s
Quality                         : High
Add ID3 tag                     : No
Command line compressor         : C:\Program Files (x86)\Exact Audio Copy\FLAC\FLAC.EXE
Additional command line options : -8 -V -T "ARTIST=%artist%" -T "TITLE=%title%" -T "ALBUM=%albumtitle%" -T "DATE=%year%" -T "TRACKNUMBER=%tracknr%" -T "GENRE=%genre%" -T "PERFORMER=%albuminterpret%" -T "COMPOSER=%composer%" %haslyrics%--tag-from-file=LYRICS="%lyricsfile%"%haslyrics% -T "ALBUMARTIST=%albumartist%" -T "DISCNUMBER=%cdnumber%" -T "TOTALDISCS=%totalcds%" -T "TOTALTRACKS=%numtracks%" -T "COMMENT=%comment%" %source% -o %dest%
TOC of the extracted CD
     Track |   Start  |  Length  | Start sector | End sector
    ---------------------------------------------------------
        1  |  0:00.00 |  3:29.23 |         0    |    15697
        2  |  3:29.23 |  3:58.32 |     15698    |    33579
        3  |  7:27.55 |  3:39.01 |     33580    |    50005
        4  | 11:06.56 |  3:49.73 |     50006    |    67253
        5  | 14:56.54 |  3:52.07 |     67254    |    84660
        6  | 18:48.61 |  3:54.60 |     84661    |   102270
        7  | 22:43.46 |  3:16.50 |    102271    |   117020
        8  | 26:00.21 |  3:14.28 |    117021    |   131598
        9  | 29:14.49 |  4:11.73 |    131599    |   150496
       10  | 33:26.47 |  4:14.17 |    150497    |   169563
Track  1
     Filename C:\Users\Kaylee\Desktop\War Of Ages - Supreme Chaos\01 - From Ashes.wav
     Pre-gap length  0:00:02.00
     Peak level 98.8 %
     Extraction speed 1.9 X
     Track quality 100.0 %
     Test CRC E182E93C
     Copy CRC E182E93C
     Track not present in AccurateRip database
     Copy OK
Track  2
     Filename C:\Users\Kaylee\Desktop\War Of Ages - Supreme Chaos\02 - Lost In Apathy.wav
     Pre-gap length  0:00:00.01
     Peak level 98.8 %
     Extraction speed 2.1 X
     Track quality 100.0 %
     Test CRC C8938C1C
     Copy CRC C8938C1C
     Track not present in AccurateRip database
     Copy OK
Track  3
     Filename C:\Users\Kaylee\Desktop\War Of Ages - Supreme Chaos\03 - Doomsday.wav
     Pre-gap length  0:00:00.14
     Peak level 98.8 %
     Extraction speed 2.3 X
     Track quality 100.0 %
     Test CRC F20C1FB2
     Copy CRC F20C1FB2
     Track not present in AccurateRip database
     Copy OK
Track  4
     Filename C:\Users\Kaylee\Desktop\War Of Ages - Supreme Chaos\04 - Chaos Theory.wav
     Peak level 98.8 %
     Extraction speed 2.5 X
     Track quality 100.0 %
     Test CRC 10F60830
     Copy CRC 10F60830
     Track not present in AccurateRip database
     Copy OK
Track  5
     Filename C:\Users\Kaylee\Desktop\War Of Ages - Supreme Chaos\05 - Lionheart.wav
     Pre-gap length  0:00:00.53
     Peak level 98.9 %
     Extraction speed 2.5 X
     Track quality 99.9 %
     Test CRC 378D1224
     Copy CRC 378D1224
     Track not present in AccurateRip database
     Copy OK
Track  6
     Filename C:\Users\Kaylee\Desktop\War Of Ages - Supreme Chaos\06 - On Broken Wings.wav
     Pre-gap length  0:00:00.32
     Peak level 98.8 %
     Extraction speed 2.8 X
     Track quality 100.0 %
     Test CRC CABE147C
     Copy CRC CABE147C
     Track not present in AccurateRip database
     Copy OK
Track  7
     Filename C:\Users\Kaylee\Desktop\War Of Ages - Supreme Chaos\07 - Amber Alert.wav
     Pre-gap length  0:00:01.06
     Peak level 98.8 %
     Extraction speed 2.9 X
     Track quality 100.0 %
     Test CRC 444133B8
     Copy CRC 444133B8
     Track not present in AccurateRip database
     Copy OK
Track  8
     Filename C:\Users\Kaylee\Desktop\War Of Ages - Supreme Chaos\08 - Renegade.wav
     Peak level 98.8 %
     Extraction speed 3.0 X
     Track quality 100.0 %
     Test CRC E04C856F
     Copy CRC E04C856F
     Track not present in AccurateRip database
     Copy OK
Track  9
     Filename C:\Users\Kaylee\Desktop\War Of Ages - Supreme Chaos\09 - Ecstacy.wav
     Peak level 98.8 %
     Extraction speed 3.0 X
     Track quality 99.9 %
     Test CRC B8A62185
     Copy CRC B8A62185
     Track not present in AccurateRip database
     Copy OK
Track 10
     Filename C:\Users\Kaylee\Desktop\War Of Ages - Supreme Chaos\10 - Still Small Voice.wav
     Pre-gap length  0:00:00.78
     Peak level 98.8 %
     Extraction speed 3.3 X
     Track quality 100.0 %
     Test CRC 09C59BCA
     Copy CRC 09C59BCA
     Track not present in AccurateRip database
     Copy OK
None of the tracks are present in the AccurateRip database
No errors occurred
End of status report
---- CUETools DB Plugin V2.1.3
[CTDB TOCID: MQSV3NnNoH4ImAirZLosd4H3uXg-] found, Submit result: MQSV3NnNoH4ImAirZLosd4H3uXg- has been confirmed
[98551e30] (1/1) Accurately ripped
==== Log checksum 37AD21E65C8EE237C3A8BC2FB2E1EDA7378E378B7F856AD0419000053592157C ====
[small.torrnada.com].t51647.torrent
Торрент: Зарегистрирован   [ 2014-08-16 14:17 ] · EE57409FA5BA08D33E4CB6F8B76A8FD20BA7275F

Скачать .torrent

Скачать

12 KB

Статус: проверено
Скачан: 42 раз
Размер: 276 MB
Оценка:  - (Голосов: 0) СуперХорошоСреднеТак себеОтстой
Поблагодарили: 0  Спасибо
Поделится:


Показать сообщения:    

Текущее время: 20-Сен 21:27

Часовой пояс: UTC + 3


Вы не можете начинать темы
Вы не можете отвечать на сообщения
Вы не можете редактировать свои сообщения
Вы не можете удалять свои сообщения
Вы не можете голосовать в опросах
Вы не можете прикреплять файлы к сообщениям
Вы можете скачивать файлы

!ВНИМАНИЕ!
Сайт не предоставляет электронные версии произведений, а занимается лишь коллекционированием и каталогизацией ссылок, присылаемых и публикуемых на форуме нашими читателями. Если вы являетесь правообладателем какого-либо представленного материала и не желаете, чтобы ссылка на него находилась в нашем каталоге, свяжитесь с нами, и мы незамедлительно удалим ее. Файлы для обмена на трекере предоставлены пользователями сайта, и администрация не несет ответственности за их содержание. Просьба не заливать файлы, защищенные авторскими правами, а также файлы нелегального содержания!