۩ ‼ Вы находитесь на Бесплатном торрент-трекере TORRNADA.com ۩ Зарегистрируйтесь для получения полного доступа ко всем функциям сайта ! ۩ После регистрации подпишитесь на нашу рассылку в своём профиле ۩
Auto Web Pinger

 

[Цитировать]

Год: 2014
Жанр: Heavy Metal
Продолжительность: 00:58:40
Лейбл: Nuclear Blast Records
№ по каталогу: 27361 31956
Страна: Germany
Кодек: Flac
Тип рипа: tracks+.cue
Битрейт: Lossless
Треклист:
01. Stampede
02. Dying Breed
03. Dark Side Of My Heart
04. Fall Of The Empire
05. Trail Of Tears
06. Wanna Be Free
07. 200 Years
08. Bloodbath Mastermind
09. From The Ashes We Rise
10. The Curse
11. Final Journey

Отчёт ЕАС:

Exact Audio Copy V1.0 beta 3 from 29. August 2011
EAC extraction logfile from 15. August 2014, 14:52
Accept / Blind Rage
Used drive  : HL-DT-STBD-RE  BH12LS30   Adapter: 0  ID: 0
Read mode               : Secure
Utilize accurate stream : Yes
Defeat audio cache      : Yes
Make use of C2 pointers : No
Read offset correction                      : 667
Overread into Lead-In and Lead-Out          : No
Fill up missing offset samples with silence : Yes
Delete leading and trailing silent blocks   : No
Null samples used in CRC calculations       : Yes
Used interface                              : Native Win32 interface for Win NT & 2000
Gap handling                                : Appended to previous track
Used output format              : User Defined Encoder
Selected bitrate                : 1024 kBit/s
Quality                         : High
Add ID3 tag                     : No
Command line compressor         : C:\Program Files (x86)\Exact Audio Copy\Flac\flac.exe
Additional command line options : -8 -V -T "ARTIST=%artist%" -T "TITLE=%title%" -T "ALBUM=%albumtitle%" -T "DATE=%year%" -T "TRACKNUMBER=%tracknr%" -T "GENRE=%genre%" -T "PERFORMER=%albuminterpret%" -T "COMPOSER=%composer%" %haslyrics%--tag-from-file=LYRICS="%lyricsfile%"%haslyrics% -T "ALBUMARTIST=%albumartist%" -T "DISCNUMBER=%cdnumber%" -T "TOTALDISCS=%totalcds%" -T "TOTALTRACKS=%numtracks%" -T "COMMENT=%comment%" %source% -o %dest%
TOC of the extracted CD
     Track |   Start  |  Length  | Start sector | End sector
    ---------------------------------------------------------
        1  |  0:00.00 |  5:14.23 |         0    |    23572
        2  |  5:14.23 |  5:21.35 |     23573    |    47682
        3  | 10:35.58 |  4:36.74 |     47683    |    68456
        4  | 15:12.57 |  5:45.14 |     68457    |    94345
        5  | 20:57.71 |  4:08.10 |     94346    |   112955
        6  | 25:06.06 |  5:37.18 |    112956    |   138248
        7  | 30:43.24 |  4:30.38 |    138249    |   158536
        8  | 35:13.62 |  5:59.49 |    158537    |   185510
        9  | 41:13.36 |  5:53.52 |    185511    |   212037
       10  | 47:07.13 |  6:28.69 |    212038    |   241206
       11  | 53:36.07 |  5:02.08 |    241207    |   263864
Track  1
     Filename C:\EACRips\Accept - Blind Rage\01. Stampede.wav
     Pre-gap length  0:00:02.00
     Peak level 100.0 %
     Extraction speed 1.1 X
     Track quality 100.0 %
     Test CRC 1841790E
     Copy CRC 1841790E
     Track not present in AccurateRip database
     Copy OK
Track  2
     Filename C:\EACRips\Accept - Blind Rage\02. Dying Breed.wav
     Peak level 100.0 %
     Extraction speed 1.3 X
     Track quality 100.0 %
     Test CRC 39D9E496
     Copy CRC 39D9E496
     Track not present in AccurateRip database
     Copy OK
Track  3
     Filename C:\EACRips\Accept - Blind Rage\03. Dark Side Of My Heart.wav
     Peak level 100.0 %
     Extraction speed 1.4 X
     Track quality 100.0 %
     Test CRC 2079C713
     Copy CRC 2079C713
     Track not present in AccurateRip database
     Copy OK
Track  4
     Filename C:\EACRips\Accept - Blind Rage\04. Fall Of The Empire.wav
     Peak level 100.0 %
     Extraction speed 1.6 X
     Track quality 100.0 %
     Test CRC CFD4191E
     Copy CRC CFD4191E
     Track not present in AccurateRip database
     Copy OK
Track  5
     Filename C:\EACRips\Accept - Blind Rage\05. Trail Of Tears.wav
     Peak level 100.0 %
     Extraction speed 1.6 X
     Track quality 100.0 %
     Test CRC A011D857
     Copy CRC A011D857
     Track not present in AccurateRip database
     Copy OK
Track  6
     Filename C:\EACRips\Accept - Blind Rage\06. Wanna Be Free.wav
     Peak level 100.0 %
     Extraction speed 1.8 X
     Track quality 100.0 %
     Test CRC E04D9531
     Copy CRC E04D9531
     Track not present in AccurateRip database
     Copy OK
Track  7
     Filename C:\EACRips\Accept - Blind Rage\07. 200 Years.wav
     Peak level 100.0 %
     Extraction speed 1.9 X
     Track quality 100.0 %
     Test CRC 12107B26
     Copy CRC 12107B26
     Track not present in AccurateRip database
     Copy OK
Track  8
     Filename C:\EACRips\Accept - Blind Rage\08. Bloodbath Mastermind.wav
     Peak level 100.0 %
     Extraction speed 2.0 X
     Track quality 100.0 %
     Test CRC 63D8FA31
     Copy CRC 63D8FA31
     Track not present in AccurateRip database
     Copy OK
Track  9
     Filename C:\EACRips\Accept - Blind Rage\09. From The Ashes We Rise.wav
     Peak level 100.0 %
     Extraction speed 2.1 X
     Track quality 100.0 %
     Test CRC F12C32DE
     Copy CRC F12C32DE
     Track not present in AccurateRip database
     Copy OK
Track 10
     Filename C:\EACRips\Accept - Blind Rage\10. The Curse.wav
     Peak level 100.0 %
     Extraction speed 2.2 X
     Track quality 100.0 %
     Test CRC 1A72A007
     Copy CRC 1A72A007
     Track not present in AccurateRip database
     Copy OK
Track 11
     Filename C:\EACRips\Accept - Blind Rage\11. Final Journey.wav
     Peak level 100.0 %
     Extraction speed 2.1 X
     Track quality 99.9 %
     Test CRC F10631C4
     Copy CRC F10631C4
     Track not present in AccurateRip database
     Copy OK
None of the tracks are present in the AccurateRip database
No errors occurred
End of status report
---- CUETools DB Plugin V2.1.4
[CTDB TOCID: oKcxCSO7wlVcN91nrbCDqzxdpis-] found
Submit result: oKcxCSO7wlVcN91nrbCDqzxdpis- has been confirmed
Track | CTDB Status
  1   | (1/1) Accurately ripped
  2   | (1/1) Accurately ripped
  3   | (1/1) Accurately ripped
  4   | (1/1) Accurately ripped
  5   | (1/1) Accurately ripped
  6   | (1/1) Accurately ripped
  7   | (1/1) Accurately ripped
  8   | (1/1) Accurately ripped
  9   | (1/1) Accurately ripped
10   | (1/1) Accurately ripped
11   | (1/1) Accurately ripped
==== Log checksum 00D665BECAAE47C7F99C9C55625592C89952190B24CD8FD2E77F4C71DBA8ADA0 ====
[small.torrnada.com].t51644.torrent
Торрент: Зарегистрирован   [ 2014-08-16 13:49 ] · 3EA3AB31D2AFD4378E1A815399BDECC18EECE433

Скачать .torrent

Скачать

19 KB

Статус: проверено
Скачан: 52 раз
Размер: 438 MB
Оценка:  - (Голосов: 0) СуперХорошоСреднеТак себеОтстой
Поблагодарили: 0  Спасибо
Поделится:


Показать сообщения:    

Текущее время: 19-Сен 04:58

Часовой пояс: UTC + 3


Вы не можете начинать темы
Вы не можете отвечать на сообщения
Вы не можете редактировать свои сообщения
Вы не можете удалять свои сообщения
Вы не можете голосовать в опросах
Вы не можете прикреплять файлы к сообщениям
Вы можете скачивать файлы

!ВНИМАНИЕ!
Сайт не предоставляет электронные версии произведений, а занимается лишь коллекционированием и каталогизацией ссылок, присылаемых и публикуемых на форуме нашими читателями. Если вы являетесь правообладателем какого-либо представленного материала и не желаете, чтобы ссылка на него находилась в нашем каталоге, свяжитесь с нами, и мы незамедлительно удалим ее. Файлы для обмена на трекере предоставлены пользователями сайта, и администрация не несет ответственности за их содержание. Просьба не заливать файлы, защищенные авторскими правами, а также файлы нелегального содержания!