۩ ‼ Вы находитесь на Бесплатном торрент-трекере TORRNADA.com ۩ Зарегистрируйтесь для получения полного доступа ко всем функциям сайта ! ۩ После регистрации подпишитесь на нашу рассылку в своём профиле ۩
Auto Web Pinger

 

[Цитировать]

Год: 2010
Жанр: Piano Jazz
Продолжительность: 00:46:38
Наличие сканов: Только cover
Кодек: FLAC (image+.cue)
Битрейт: Lossless
Источник: Собственный рип
Издатель (лейбл): Green Hill Productions
Номер по каталогу: GHD5678
Треклист:
01. You Make Me Feel So Young (3:30)
02. Nice 'N Easy (4:04)
03. Come Rain or Come Shine (4:50)
04. New York, New York (4:11)
05. Fly Me to the Moon (In Other Words) (3:36)
06. Guess I'll Have to Hang My Tears Out to Dry (4:38)
07. Just in Time (3:39)
08. Come Fly with Me (3:09)
09. Call Me Irresponsible (3:29)
10. Angel Eyes (4:00)
11. (Love Is) The Tender Trap (3:23)
12. Don't Worry 'Bout Me (4:09)

Отчёт ЕАС:

Exact Audio Copy V1.0 beta 3 from 29. August 2011
Отчёт EAC об извлечении, выполненном 16. августа 2014, 8:17
Beegie Adair / Swingin' with Sinatra
Дисковод: _NEC    DVD_RW ND-3540A   Adapter: 0  ID: 0
Режим чтения                 : Достоверность
Использование точного потока : Да
Отключение кэша аудио        : Да
Использование указателей C2  : Нет
Коррекция смещения при чтении                     : 48
Способность читать области Lead-in и Lead-out     : Нет
Заполнение пропущенных сэмплов тишиной            : Да
Удаление блоков с тишиной в начале и конце        : Нет
При вычислениях CRC использовались нулевые сэмплы : Да
Интерфейс                                         : Встроенный Win32-интерфейс для Win NT/2000
Выходной формат          : Пользовательский кодировщик
Выбранный битрейт        : 512 kBit/s
Качество                 : Высокий
Добавление ID3-тега      : Нет
Утилита сжатия           : G:\Program Files\Exact Audio Copy\Flac\flac.exe
Дополнительные параметры : -V -8 -T "Date=%year%" -T "Genre=%genre%" %source%
TOC извлечённого CD
     Трек |   Старт  | Длительность | Начальный сектор | Конечный сектор
    ---------------------------------------------------------------------
       1  |  0:00.00 |    3:30.09   |           0      |      15758
       2  |  3:30.09 |    4:03.73   |       15759      |      34056
       3  |  7:34.07 |    4:50.37   |       34057      |      55843
       4  | 12:24.44 |    4:11.02   |       55844      |      74670
       5  | 16:35.46 |    3:35.43   |       74671      |      90838
       6  | 20:11.14 |    4:37.67   |       90839      |     111680
       7  | 24:49.06 |    3:39.15   |      111681      |     128120
       8  | 28:28.21 |    3:09.08   |      128121      |     142303
       9  | 31:37.29 |    3:28.64   |      142304      |     157967
      10  | 35:06.18 |    4:00.05   |      157968      |     175972
      11  | 39:06.23 |    3:22.71   |      175973      |     191193
      12  | 42:29.19 |    4:08.43   |      191194      |     209836
Характеристики диапазона извлечения и сообщения об ошибках
Выбранный диапазон
     Имя файла Z:\Download\Music\MyOwn\Beegie Adair - 2010 - Swingin' with Sinatra\Beegie Adair - Swingin' with Sinatra.wav
     Пиковый уровень 98.2 %
     Скорость извлечения 6.9 X
     Качество диапазона 100.0 %
     CRC теста D1C6F0AE
     CRC копии D1C6F0AE
     Копирование... OK
Ошибок не произошло
AccurateRip: сводка
Трек  1  : извлечено точно (доверие 3)  [C56F8CB5]  (AR v1)
Трек  2  : извлечено точно (доверие 3)  [E5084F88]  (AR v1)
Трек  3  : извлечено точно (доверие 3)  [09B8E215]  (AR v1)
Трек  4  : извлечено точно (доверие 3)  [9659FDA4]  (AR v1)
Трек  5  : извлечено точно (доверие 3)  [49D0C191]  (AR v1)
Трек  6  : извлечено точно (доверие 3)  [A80F4953]  (AR v1)
Трек  7  : извлечено точно (доверие 3)  [328B277C]  (AR v1)
Трек  8  : извлечено точно (доверие 3)  [D6F800BB]  (AR v1)
Трек  9  : извлечено точно (доверие 3)  [4117ED07]  (AR v1)
Трек 10  : извлечено точно (доверие 3)  [EFCF2312]  (AR v1)
Трек 11  : извлечено точно (доверие 3)  [22FC74BE]  (AR v1)
Трек 12  : извлечено точно (доверие 3)  [6DE0157C]  (AR v1)
Все треки извлечены точно
Конец отчёта
==== Контрольная сумма отчёта 1CD23AD8C7BE8E5173794D9B7B695A0DBB41035AF61E55A5EEE1B3129F349578 ====
[small.torrnada.com].t51639.torrent
Торрент: Зарегистрирован   [ 2014-08-16 13:02 ] · 7BEF1AB197A0B57CFFC84231838E613E5DE5A00D

Скачать .torrent

Скачать

11 KB

Статус: проверено
Скачан: 69 раз
Размер: 263 MB
Оценка:  - (Голосов: 0) СуперХорошоСреднеТак себеОтстой
Поблагодарили: 1  Спасибо   (список)
Поделится:


Показать сообщения:    

Текущее время: 27-Июн 01:34

Часовой пояс: UTC + 3


Вы не можете начинать темы
Вы не можете отвечать на сообщения
Вы не можете редактировать свои сообщения
Вы не можете удалять свои сообщения
Вы не можете голосовать в опросах
Вы не можете прикреплять файлы к сообщениям
Вы можете скачивать файлы

!ВНИМАНИЕ!
Сайт не предоставляет электронные версии произведений, а занимается лишь коллекционированием и каталогизацией ссылок, присылаемых и публикуемых на форуме нашими читателями. Если вы являетесь правообладателем какого-либо представленного материала и не желаете, чтобы ссылка на него находилась в нашем каталоге, свяжитесь с нами, и мы незамедлительно удалим ее. Файлы для обмена на трекере предоставлены пользователями сайта, и администрация не несет ответственности за их содержание. Просьба не заливать файлы, защищенные авторскими правами, а также файлы нелегального содержания!