۩ ‼ Вы находитесь на Бесплатном торрент-трекере TORRNADA.com ۩ Зарегистрируйтесь для получения полного доступа ко всем функциям сайта ! ۩ После регистрации подпишитесь на нашу рассылку в своём профиле ۩
Auto Web Pinger

 

[Цитировать]

Информация о фильме
Название
: Путь в Палому
Оригинальное название: Road to Paloma
Год выхода: 2014
Жанр: триллер, драма
Режиссер: Джейсон Момоа
В ролях: Ти Александр, Генри Элис, Лиза Боне, Крис Браунинг, Чарльз Брумбли, Линден Чайлз, Лэнс Хенриксен, Роберт Гомер Моллохан, Джейсон Момоа
О фильме: Коренной американец Роберт Вулф решает сам разобраться с подонками изнасиловавшими и убившими его мать. И естественно, решив совершить самосуд, он стал мишенью для ФБР и вынужден скрываться.
Выпущено: США
Продолжительность: 01:30:28
Перевод: Любительский (одноголосый, закадровый) - xixidok
Файл
Качество: BDRip 720p
Формат: MKV
Видео: MPEG4/AVC, 1280x534 (2.40:1), 4905 Кбит/сек, 23.976 кадра/сек
Аудио 1: AC3, 6 каналов, 640 Кбит/сек | Русский
Аудио 2: AC3, 6 каналов, 640 Кбит/сек | Английский
Субтитры: Английские (Full, SDH, SDH-Colored)
Навигация по главам: Есть

MediaInfo:

Общее
Уникальный идентификатор : 191462789381033567844278487882855023902 (0x900A64558E62AB48AE1E1E073EE3051E)
Полное имя : Road to Paloma. (2014) BDRip 720p.mkv
Формат : Matroska
Версия формата : Version 2
Размер файла : 3,91 Гбайт
Продолжительность : 1 ч. 30 м.
Общий поток : 6187 Кбит/сек
Название фильма : Road to Paloma. 2014
Дата кодирования : UTC 2014-08-12 20:31:34
Программа кодирования : mkvmerge v5.8.0 ('No Sleep / Pillow') built on Sep 2 2012 15:37:04
Библиотека кодирования : libebml v1.2.3 + libmatroska v1.3.0
Видео
Идентификатор : 1
Формат : AVC
Формат/Информация : Advanced Video Codec
Профиль формата : High@L4.1
Параметр CABAC формата : Да
Параметр ReFrames формата : 11 кадров
Идентификатор кодека : V_MPEG4/ISO/AVC
Продолжительность : 1 ч. 30 м.
Битрейт : 4905 Кбит/сек
Ширина : 1280 пикселей
Высота : 534 пикселя
Соотношение сторон : 2,40:1
Режим частоты кадров : Постоянный
Частота кадров : 23,976 кадра/сек
Цветовое пространство : YUV
Субдискретизация насыщенности : 4:2:0
Битовая глубина : 8 бит
Тип развёртки : Прогрессивная
Бит/(Пиксели*Кадры) : 0.299
Размер потока : 3,02 Гбайт (77%)
Заголовок : CHD
Библиотека кодирования : x264 core 142 r2431 ac76440
Язык : English
Default : Да
Forced : Нет
Аудио #1
Идентификатор : 2
Формат : AC-3
Формат/Информация : Audio Coding 3
Расширение режима : CM (complete main)
Параметр Endianness формата : Big
Идентификатор кодека : A_AC3
Продолжительность : 1 ч. 30 м.
Вид битрейта : Постоянный
Битрейт : 640 Кбит/сек
Каналы : 6 каналов
Расположение каналов : Front: L C R, Side: L R, LFE
Частота : 48,0 КГц
Битовая глубина : 16 бит
Метод сжатия : С потерями
Размер потока : 414 Мбайт (10%)
Заголовок : Rus | AC3 5.1 | 640 Kbps | ХихидоК
Язык : Russian
Default : Да
Forced : Нет
Аудио #2
Идентификатор : 3
Формат : AC-3
Формат/Информация : Audio Coding 3
Расширение режима : CM (complete main)
Параметр Endianness формата : Big
Идентификатор кодека : A_AC3
Продолжительность : 1 ч. 30 м.
Вид битрейта : Постоянный
Битрейт : 640 Кбит/сек
Каналы : 6 каналов
Расположение каналов : Front: L C R, Side: L R, LFE
Частота : 48,0 КГц
Битовая глубина : 16 бит
Метод сжатия : С потерями
Размер потока : 414 Мбайт (10%)
Заголовок : Eng | AC3 5.1 | 640 Kbps
Язык : English
Default : Нет
Forced : Нет
Текст #1
Идентификатор : 4
Формат : UTF-8
Идентификатор кодека : S_TEXT/UTF8
Идентификатор кодека/Информация : UTF-8 Plain Text
Заголовок : Full
Язык : English
Default : Нет
Forced : Нет
Текст #2
Идентификатор : 5
Формат : UTF-8
Идентификатор кодека : S_TEXT/UTF8
Идентификатор кодека/Информация : UTF-8 Plain Text
Заголовок : SDH
Язык : English
Default : Нет
Forced : Нет
Текст #3
Идентификатор : 6
Формат : UTF-8
Идентификатор кодека : S_TEXT/UTF8
Идентификатор кодека/Информация : UTF-8 Plain Text
Заголовок : SDH-Colored
Язык : English
Default : Нет
Forced : Нет
Меню
00:00:00.000 : en:00:00:00.000
00:04:12.419 : en:00:04:12.419
00:13:57.920 : en:00:13:57.920
00:21:19.987 : en:00:21:19.987
00:28:26.371 : en:00:28:26.371
00:37:09.227 : en:00:37:09.227
00:49:37.349 : en:00:49:37.349
00:57:21.021 : en:00:57:21.021
01:06:13.178 : en:01:06:13.178
01:12:40.856 : en:01:12:40.856
01:19:33.811 : en:01:19:33.811
01:26:23.762 : en:01:26:23.762


Показать сообщения:    

Текущее время: 27-Июн 12:59

Часовой пояс: UTC + 3


Вы не можете начинать темы
Вы не можете отвечать на сообщения
Вы не можете редактировать свои сообщения
Вы не можете удалять свои сообщения
Вы не можете голосовать в опросах
Вы не можете прикреплять файлы к сообщениям
Вы не можете скачивать файлы

!ВНИМАНИЕ!
Сайт не предоставляет электронные версии произведений, а занимается лишь коллекционированием и каталогизацией ссылок, присылаемых и публикуемых на форуме нашими читателями. Если вы являетесь правообладателем какого-либо представленного материала и не желаете, чтобы ссылка на него находилась в нашем каталоге, свяжитесь с нами, и мы незамедлительно удалим ее. Файлы для обмена на трекере предоставлены пользователями сайта, и администрация не несет ответственности за их содержание. Просьба не заливать файлы, защищенные авторскими правами, а также файлы нелегального содержания!