۩ ‼ Вы находитесь на Бесплатном торрент-трекере TORRNADA.com ۩ Зарегистрируйтесь для получения полного доступа ко всем функциям сайта ! ۩ После регистрации подпишитесь на нашу рассылку в своём профиле ۩
Auto Web Pinger

 

[Цитировать]

Год выпуска: 2014
Жанр: Триллер, драма
Выпущено: США, Boss Media, Pride of Gypsies
Продолжительность: 01:30:28
Перевод: Любительский одноголосый (Хихикающий доктор)
Режиссер: Джейсон Момоа
В ролях: Ти Александр, Генри Элис, Лиза Боне, Крис Браунинг, Чарльз Брумбли, Линден Чайлз, Лэнс Хенриксен, Роберт Гомер Моллохан, Джейсон Момоа
О фильме: Коренной американец Роберт Вулф решает сам разобраться с подонками изнасиловавшими и убившими его мать. И естественно, решив совершить самосуд, он стал мишенью для ФБР и вынужден скрываться.

Качество:

x264 [info]: frame I:751 Avg QP:14.69 size:133368
x264 [info]: frame P:28262 Avg QP:17.74 size: 56689
x264 [info]: frame B:101139 Avg QP:18.97 size: 21023
x264 [info]: consecutive B-frames: 2.2% 3.0% 7.1% 21.2% 15.5% 35.3% 5.8% 4.8% 1.1% 1.1%
Формат : Matroska
Версия формата : Version 2
Размер файла : 4,38 Гбайт
Продолжительность : 1 ч. 30 м.
Общий поток : 6924 Кбит/сек
Название фильма : ~V ad~
Дата кодирования : UTC 2014-08-12 16:46:44
Программа кодирования : mkvmerge v6.5.0 ('Isn't she lovely') built on Oct 20 2013 12:50:05
Библиотека кодирования : libebml v1.3.0 + libmatroska v1.4.1
Видео
Идентификатор : 1
Формат : AVC
Формат/Информация : Advanced Video Codec
Профиль формата : High@L4.1
Параметр CABAC формата : Да
Параметр ReFrames формата : 5 кадров
Идентификатор кодека : V_MPEG4/ISO/AVC
Продолжительность : 1 ч. 30 м.
Битрейт : 5643 Кбит/сек
Ширина : 1920 пикселей
Высота : 800 пикселей
Соотношение сторон : 2,40:1
Режим частоты кадров : Постоянный
Частота кадров : 23,976 кадра/сек
Цветовое пространство : YUV
Субдискретизация насыщенности : 4:2:0
Битовая глубина : 8 бит
Тип развёртки : Прогрессивная
Бит/(Пиксели*Кадры) : 0.153
Размер потока : 3,48 Гбайт (80%)
Заголовок : ~V~
Библиотека кодирования : x264 core 142 r2409+42 04be48a tMod [8-bit@all X86_64]
Язык : English
Default : Да
Forced : Нет
Аудио #1
Идентификатор : 2
Формат : AC-3
Формат/Информация : Audio Coding 3
Расширение режима : CM (complete main)
Параметр Endianness формата : Big
Идентификатор кодека : A_AC3
Продолжительность : 1 ч. 30 м.
Вид битрейта : Постоянный
Битрейт : 640 Кбит/сек
Каналы : 6 каналов
Расположение каналов : Front: L C R, Side: L R, LFE
Частота : 48,0 КГц
Битовая глубина : 16 бит
Метод сжатия : С потерями
Размер потока : 414 Мбайт (9%)
Заголовок : ХихидоК
Язык : Russian
Default : Да
Forced : Да
Аудио #2
Идентификатор : 3
Формат : AC-3
Формат/Информация : Audio Coding 3
Расширение режима : CM (complete main)
Параметр Endianness формата : Big
Идентификатор кодека : A_AC3
Продолжительность : 1 ч. 30 м.
Вид битрейта : Постоянный
Битрейт : 640 Кбит/сек
Каналы : 6 каналов
Расположение каналов : Front: L C R, Side: L R, LFE
Частота : 48,0 КГц
Битовая глубина : 16 бит
Метод сжатия : С потерями
Размер потока : 414 Мбайт (9%)
Язык : English
Default : Нет
Forced : Нет
Меню
00:00:00.000 : en:Chapter 01
00:04:12.418 : en:Chapter 02
00:13:57.920 : en:Chapter 03
00:21:19.987 : en:Chapter 04
00:28:25.995 : en:Chapter 05
00:37:09.227 : en:Chapter 06
00:49:37.057 : en:Chapter 07
00:57:21.020 : en:Chapter 08
01:06:12.927 : en:Chapter 09
01:12:40.856 : en:Chapter 10
01:19:33.727 : en:Chapter 11
01:26:24.053 : en:Chapter 12
Видео:
MPEG-4 AVC, 5643 Кбит/с, 1920x800
Аудио:
Русский, английский (АС3, 6 ch, 640 Кбит/с)


Показать сообщения:    

Текущее время: 25-Июн 02:53

Часовой пояс: UTC + 3


Вы не можете начинать темы
Вы не можете отвечать на сообщения
Вы не можете редактировать свои сообщения
Вы не можете удалять свои сообщения
Вы не можете голосовать в опросах
Вы не можете прикреплять файлы к сообщениям
Вы не можете скачивать файлы

!ВНИМАНИЕ!
Сайт не предоставляет электронные версии произведений, а занимается лишь коллекционированием и каталогизацией ссылок, присылаемых и публикуемых на форуме нашими читателями. Если вы являетесь правообладателем какого-либо представленного материала и не желаете, чтобы ссылка на него находилась в нашем каталоге, свяжитесь с нами, и мы незамедлительно удалим ее. Файлы для обмена на трекере предоставлены пользователями сайта, и администрация не несет ответственности за их содержание. Просьба не заливать файлы, защищенные авторскими правами, а также файлы нелегального содержания!