۩ ‼ Вы находитесь на Бесплатном торрент-трекере TORRNADA.com ۩ Зарегистрируйтесь для получения полного доступа ко всем функциям сайта ! ۩ После регистрации подпишитесь на нашу рассылку в своём профиле ۩
Auto Web Pinger

 

[Цитировать]

Название: I'm Not Bossy, I'm the Boss (Deluxe Version)
Исполнитель: Sinad (Sinead) O'Conno
Год: 2014
Жанр: Pop Rock, Alternative, College Rock, Singer/Songwriter
Лейбл: Nettwerk Productions
Номер по каталогу: 0 6700 31035 2 7
Страна: EU
Продолжительность: 00:53:51
Тип рипа: tracks+.cue
Кодек: FLAC
Битрейт: Lossless
Наличие сканов в содержимом раздачи: да
Дополнительно: Digital Booklet
Треклист:
01. How About I Be Me - 3:25
02. Dense Water Deeper Down - 3:32
03. Kisses Like Mine - 2:28
04. Your Green Jacket - 3:23
05. The Vishnu Room - 2:47
06. The Voice Of My Doctor - 3:36
07. Harbour - 4:40
08. James Brown (with Seun Kuti) - 3:04
09. 8 Good Reasons - 3:26
10. Take Me To Church - 3:01
11. Where Have You Been? - 3:02
12. Streetcars - 4:28
Bonus Tracks:
13. How Nice A Woman Can Be - 3:02
14. Make A Fool Of Me All Night - 3:35
15. Little Story - 3:06

Отчёт ЕАС:

Exact Audio Copy V1.0 beta 3 from 29. August 2011
EAC extraction logfile from 10. August 2014, 15:18
Sinead O' Connor / I'm Not Bossy, I'm The Boss (Deluxe Edition)
Used drive  : TSSTcorpCDDVDW SH-224DB   Adapter: 3  ID: 0
Read mode               : Secure
Utilize accurate stream : Yes
Defeat audio cache      : No
Make use of C2 pointers : Yes
Read offset correction                      : 6
Overread into Lead-In and Lead-Out          : No
Fill up missing offset samples with silence : Yes
Delete leading and trailing silent blocks   : No
Null samples used in CRC calculations       : Yes
Used interface                              : Installed external ASPI interface
Used output format : Internal WAV Routines
Sample format      : 44.100 Hz; 16 Bit; Stereo
TOC of the extracted CD
     Track |   Start  |  Length  | Start sector | End sector
    ---------------------------------------------------------
        1  |  0:00.00 |  3:25.49 |         0    |    15423
        2  |  3:25.49 |  3:32.54 |     15424    |    31377
        3  |  6:58.28 |  2:28.36 |     31378    |    42513
        4  |  9:26.64 |  3:23.44 |     42514    |    57782
        5  | 12:50.33 |  2:47.32 |     57783    |    70339
        6  | 15:37.65 |  3:36.15 |     70340    |    86554
        7  | 19:14.05 |  4:40.48 |     86555    |   107602
        8  | 23:54.53 |  3:04.73 |    107603    |   121475
        9  | 26:59.51 |  3:26.66 |    121476    |   136991
       10  | 30:26.42 |  3:01.21 |    136992    |   150587
       11  | 33:27.63 |  3:02.60 |    150588    |   164297
       12  | 36:30.48 |  4:28.65 |    164298    |   184462
       13  | 40:59.38 |  3:02.69 |    184463    |   198181
       14  | 44:02.32 |  3:35.74 |    198182    |   214380
       15  | 47:38.31 |  3:06.53 |    214381    |   228383
Range status and errors
Selected range
     Filename F:\POST 2\Sinead O' Connor - I'm Not Bossy I'm The Boss (EAC)\Sinead O' Connor - I'm Not Bossy, I'm The Boss (Deluxe Edition).wav
     Peak level 100.0 %
     Extraction speed 8.6 X
     Range quality 100.0 %
     Test CRC 5078C380
     Copy CRC 5078C380
     Copy OK
No errors occurred
AccurateRip summary
Track  1  not present in database
Track  2  not present in database
Track  3  not present in database
Track  4  not present in database
Track  5  not present in database
Track  6  not present in database
Track  7  not present in database
Track  8  not present in database
Track  9  not present in database
Track 10  not present in database
Track 11  not present in database
Track 12  not present in database
Track 13  not present in database
Track 14  not present in database
Track 15  not present in database
None of the tracks are present in the AccurateRip database
End of status report
[youtube]http://www.youtube.com/v/jMzY_KQIKjU?hl[/youtube]
[small.torrnada.com].t51435.torrent
Торрент: Зарегистрирован   [ 2014-08-13 15:12 ] · 1AEBC206D0957E131B2D294994402AEAB54E9032

Скачать .torrent

Скачать

15 KB

Статус: проверено
Скачан: 46 раз
Размер: 326 MB
Оценка:  - (Голосов: 0) СуперХорошоСреднеТак себеОтстой
Поблагодарили: 0  Спасибо
Поделится:


Показать сообщения:    

Текущее время: 17-Июн 18:15

Часовой пояс: UTC + 3


Вы не можете начинать темы
Вы не можете отвечать на сообщения
Вы не можете редактировать свои сообщения
Вы не можете удалять свои сообщения
Вы не можете голосовать в опросах
Вы не можете прикреплять файлы к сообщениям
Вы можете скачивать файлы

!ВНИМАНИЕ!
Сайт не предоставляет электронные версии произведений, а занимается лишь коллекционированием и каталогизацией ссылок, присылаемых и публикуемых на форуме нашими читателями. Если вы являетесь правообладателем какого-либо представленного материала и не желаете, чтобы ссылка на него находилась в нашем каталоге, свяжитесь с нами, и мы незамедлительно удалим ее. Файлы для обмена на трекере предоставлены пользователями сайта, и администрация не несет ответственности за их содержание. Просьба не заливать файлы, защищенные авторскими правами, а также файлы нелегального содержания!