۩ ‼ Вы находитесь на Бесплатном торрент-трекере TORRNADA.com ۩ Зарегистрируйтесь для получения полного доступа ко всем функциям сайта ! ۩ После регистрации подпишитесь на нашу рассылку в своём профиле ۩
Auto Web Pinger

 

[Цитировать]

Год: 2014
Жанр: Power Metal
Продолжительность: 00:38:36
Лейбл: Massacre Records
№ по каталогу: MAS CD0858
Страна: Sweden
Кодек: Flac
Тип рипа: image+.cue
Битрейт: Lossless
Источник: ilijan
Треклист:
01. Killer 04:08
02. Warrior 04:18
03. Hail The Fallen 04:21
04. Solar Mariner 04:28
05. Forgotten Realms 05:53
06. Spotlight Rebel 03:44
07. The Lord Of Chaos 03:19
08. Dreamers On Trial 04:26
09. Dogs On Holy Ground 03:52

Отчёт ЕАС:

Exact Audio Copy V1.0 beta 3 from 29. August 2011
EAC extraction logfile from 4. August 2014, 10:32
Crystal Eyes / Killer
Used drive : ATAPI iHAS122 W Adapter: 2 ID: 0
Read mode : Secure
Utilize accurate stream : Yes
Defeat audio cache : Yes
Make use of C2 pointers : No
Read offset correction : 48
Overread into Lead-In and Lead-Out : No
Fill up missing offset samples with silence : Yes
Delete leading and trailing silent blocks : No
Null samples used in CRC calculations : Yes
Used interface : Installed external ASPI interface
Used output format : User Defined Encoder
Selected bitrate : 1024 kBit/s
Quality : High
Add ID3 tag : No
Command line compressor : C:\Program Files\FLAC\flac.exe
Additional command line options : -V -8 -T "Date=%year%" -T "Genre=%genre%" -T"COMMENT=Ripped by Ilijan" -8 -V %source%
TOC of the extracted CD
Track | Start | Length | Start sector | End sector
---------------------------------------------------------
1 | 0:00.00 | 4:06.38 | 0 | 18487
2 | 4:06.38 | 4:16.11 | 18488 | 37698
3 | 8:22.49 | 4:19.48 | 37699 | 57171
4 | 12:42.22 | 4:26.35 | 57172 | 77156
5 | 17:08.57 | 5:53.19 | 77157 | 103650
6 | 23:02.01 | 3:43.47 | 103651 | 120422
7 | 26:45.48 | 3:17.49 | 120423 | 135246
8 | 30:03.22 | 4:24.72 | 135247 | 155118
9 | 34:28.19 | 3:52.38 | 155119 | 172556
Range status and errors
Selected range
Filename D:\Ilijan\Crystal Eyes - Killer.wav
Peak level 99.8 %
Extraction speed 3.6 X
Range quality 99.9 %
Test CRC 995C86A7
Copy CRC 995C86A7
Copy OK
No errors occurred
AccurateRip summary
Track 1 accurately ripped (confidence 2) [007EB43E] (AR v2)
Track 2 accurately ripped (confidence 2) [3841B9D5] (AR v2)
Track 3 accurately ripped (confidence 2) [3E7246C2] (AR v2)
Track 4 accurately ripped (confidence 2) [3F136F1A] (AR v2)
Track 5 accurately ripped (confidence 2) [365F2389] (AR v2)
Track 6 accurately ripped (confidence 2) [D9AFD028] (AR v2)
Track 7 accurately ripped (confidence 2) [0C49331C] (AR v2)
Track 8 accurately ripped (confidence 2) [D4216567] (AR v2)
Track 9 accurately ripped (confidence 2) [C620697A] (AR v2)
All tracks accurately ripped
End of status report
---- CUETools DB Plugin V2.1.3
[CTDB TOCID: FnpVvRxpV0fKKi26tDXLBrQ3NYg-] found, Submit result: FnpVvRxpV0fKKi26tDXLBrQ3NYg- has been confirmed
[3d239889] (2/2) Accurately ripped
==== Log checksum 10B325199CB33DD18AC9F651112B440DE81088598456F16348E9D94D0A7F82C2 ====
[small.torrnada.com].t51432.torrent
Торрент: Зарегистрирован   [ 2014-08-13 14:39 ] · B81268622E704DCE589D9430797BB46BEE3F44A3

Скачать .torrent

Скачать

14 KB

Статус: проверено
Скачан: 59 раз
Размер: 321 MB
Оценка:  - (Голосов: 0) СуперХорошоСреднеТак себеОтстой
Поблагодарили: 0  Спасибо
Поделится:


Показать сообщения:    

Текущее время: 16-Сен 23:13

Часовой пояс: UTC + 3


Вы не можете начинать темы
Вы не можете отвечать на сообщения
Вы не можете редактировать свои сообщения
Вы не можете удалять свои сообщения
Вы не можете голосовать в опросах
Вы не можете прикреплять файлы к сообщениям
Вы можете скачивать файлы

!ВНИМАНИЕ!
Сайт не предоставляет электронные версии произведений, а занимается лишь коллекционированием и каталогизацией ссылок, присылаемых и публикуемых на форуме нашими читателями. Если вы являетесь правообладателем какого-либо представленного материала и не желаете, чтобы ссылка на него находилась в нашем каталоге, свяжитесь с нами, и мы незамедлительно удалим ее. Файлы для обмена на трекере предоставлены пользователями сайта, и администрация не несет ответственности за их содержание. Просьба не заливать файлы, защищенные авторскими правами, а также файлы нелегального содержания!