۩ ‼ Вы находитесь на Бесплатном торрент-трекере TORRNADA.com ۩ Зарегистрируйтесь для получения полного доступа ко всем функциям сайта ! ۩ После регистрации подпишитесь на нашу рассылку в своём профиле ۩
Auto Web Pinger

 

[Цитировать]

Год: 1998
Год записи: 1949-1950
Жанр: Jazz, New Orleans Jazz, Trad Jazz
Продолжительность: 01:00:50
Кодек: FLAC (tracks+.cue)
Битрейт: Lossless
Источник: Собственный рип
Издатель (лейбл): Blue Note
Страна-производитель диска: Russia
Наличие сканов в содержимом раздачи: да
Треклист:
01. Sister Kate [03:03]
02. Tiger Rag [03:07]
03. Tin Roof Blues [02:58]
04. I Found A New Baby [03:09]
05. Nobody Knows When You're Down And Out [03:06]
06. When The Saints Go Marching In [02:59]
07. Basin Street Blues [03:18]
08. Cake Walking Blues [02:40]
09. At The Jazz Band Ball [03:03]
10. Joshua Fit The Battle Of Jericho [03:21]
11. Fidgety Feet [03:00]
12. Tailgate Ramble [02:53]
13. Copenhagan [02:51]
14. China Boy [03:05]
15. Runnin' Wild (alt) [03:06]
16. Runnin' Wild [03:08]
17. Ain't Gonna Give Nobdy None Of My Jelly Roll (alt) [03:21]
18. Ain't Gonna Give Nobdy None Of My Jelly Roll [02:58]
19. Mandy Make Up Your Mind [02:52]
20. Shim-Me-Wa-Wabble [02:42]

Отчёт ЕАС:

Exact Audio Copy V1.0 beta 3 from 29. August 2011
EAC extraction logfile from 12. August 2014, 11:04
Sidney Bechet /  Runnin' Wild
Used drive  : ATAPI   iHAS124   D   Adapter: 1  ID: 0
Read mode               : Secure
Utilize accurate stream : Yes
Defeat audio cache      : Yes
Make use of C2 pointers : No
Read offset correction                      : 6
Overread into Lead-In and Lead-Out          : No
Fill up missing offset samples with silence : Yes
Delete leading and trailing silent blocks   : No
Null samples used in CRC calculations       : Yes
Used interface                              : Native Win32 interface for Win NT & 2000
Gap handling                                : Appended to previous track
Used output format              : User Defined Encoder
Selected bitrate                : 128 kBit/s
Quality                         : High
Add ID3 tag                     : No
Command line compressor         : C:\Program Files (x86)\Exact Audio Copy\Flac\flac.exe
Additional command line options : -V -8 -T "Genre=%genre%" -T "Artist=%artist%" -T "Title=%title%" -T "Album=%albumtitle%" -T "Date=%year%" -T "Tracknumber=%tracknr%" -T "Comment=%comment%" %source%
TOC of the extracted CD
     Track |   Start  |  Length  | Start sector | End sector
    ---------------------------------------------------------
        1  |  0:00.00 |  3:03.62 |         0    |    13786
        2  |  3:03.62 |  3:07.03 |     13787    |    27814
        3  |  6:10.65 |  2:58.72 |     27815    |    41236
        4  |  9:09.62 |  3:09.05 |     41237    |    55416
        5  | 12:18.67 |  3:06.48 |     55417    |    69414
        6  | 15:25.40 |  2:59.52 |     69415    |    82891
        7  | 18:25.17 |  3:18.30 |     82892    |    97771
        8  | 21:43.47 |  2:40.05 |     97772    |   109776
        9  | 24:23.52 |  3:03.73 |    109777    |   123574
       10  | 27:27.50 |  3:21.62 |    123575    |   138711
       11  | 30:49.37 |  3:00.63 |    138712    |   152274
       12  | 33:50.25 |  2:53.72 |    152275    |   165321
       13  | 36:44.22 |  2:51.60 |    165322    |   178206
       14  | 39:36.07 |  3:05.18 |    178207    |   192099
       15  | 42:41.25 |  3:06.22 |    192100    |   206071
       16  | 45:47.47 |  3:08.68 |    206072    |   220239
       17  | 48:56.40 |  3:21.20 |    220240    |   235334
       18  | 52:17.60 |  2:58.10 |    235335    |   248694
       19  | 55:15.70 |  2:52.37 |    248695    |   261631
       20  | 58:08.32 |  2:42.13 |    261632    |   273794
Track  1
     Filename D:\Трeкeр torrnada\Sidney Bechet - Runnin' Wild (1998)\01. Sister Kate.wav
     Pre-gap length  0:00:02.00
     Peak level 83.7 %
     Extraction speed 4.9 X
     Track quality 100.0 %
     Test CRC BBCBF4E9
     Copy CRC BBCBF4E9
     Cannot be verified as accurate (confidence 5)  [5FC15EB4], AccurateRip returned [D5489818]  (AR v2)
     Copy OK
Track  2
     Filename D:\Трeкeр torrnada\Sidney Bechet - Runnin' Wild (1998)\02. Tiger Rag.wav
     Pre-gap length  0:00:01.70
     Peak level 81.1 %
     Extraction speed 5.3 X
     Track quality 100.0 %
     Test CRC C4DC912C
     Copy CRC C4DC912C
     Cannot be verified as accurate (confidence 5)  [C77495FD], AccurateRip returned [8E583DD6]  (AR v2)
     Copy OK
Track  3
     Filename D:\Трeкeр torrnada\Sidney Bechet - Runnin' Wild (1998)\03. Tin Roof Blues.wav
     Pre-gap length  0:00:02.18
     Peak level 81.0 %
     Extraction speed 5.0 X
     Track quality 99.9 %
     Test CRC C4EEBBFA
     Copy CRC C4EEBBFA
     Cannot be verified as accurate (confidence 5)  [E504A3FF], AccurateRip returned [E69ABF2C]  (AR v2)
     Copy OK
Track  4
     Filename D:\Трeкeр torrnada\Sidney Bechet - Runnin' Wild (1998)\04. I Found A New Baby.wav
     Pre-gap length  0:00:02.27
     Peak level 79.3 %
     Extraction speed 6.1 X
     Track quality 100.0 %
     Test CRC 58717DD6
     Copy CRC 58717DD6
     Cannot be verified as accurate (confidence 5)  [77B1AB5C], AccurateRip returned [905DC930]  (AR v2)
     Copy OK
Track  5
     Filename D:\Трeкeр torrnada\Sidney Bechet - Runnin' Wild (1998)\05. Nobody Knows When You're Down And Out.wav
     Pre-gap length  0:00:02.40
     Peak level 94.8 %
     Extraction speed 6.4 X
     Track quality 100.0 %
     Test CRC 808CDD60
     Copy CRC 808CDD60
     Cannot be verified as accurate (confidence 5)  [A3B64B59], AccurateRip returned [92F1E4F3]  (AR v2)
     Copy OK
Track  6
     Filename D:\Трeкeр torrnada\Sidney Bechet - Runnin' Wild (1998)\06. When The Saints Go Marching In.wav
     Pre-gap length  0:00:01.73
     Peak level 83.1 %
     Extraction speed 6.8 X
     Track quality 100.0 %
     Test CRC 439FDEE2
     Copy CRC 439FDEE2
     Cannot be verified as accurate (confidence 5)  [30AE39E9], AccurateRip returned [64639386]  (AR v2)
     Copy OK
Track  7
     Filename D:\Трeкeр torrnada\Sidney Bechet - Runnin' Wild (1998)\07. Basin Street Blues.wav
     Pre-gap length  0:00:02.32
     Peak level 74.8 %
     Extraction speed 7.3 X
     Track quality 100.0 %
     Test CRC 7FE67427
     Copy CRC 7FE67427
     Cannot be verified as accurate (confidence 5)  [C64F3C4B], AccurateRip returned [AD1DC5D1]  (AR v2)
     Copy OK
Track  8
     Filename D:\Трeкeр torrnada\Sidney Bechet - Runnin' Wild (1998)\08. Cake Walking Blues.wav
     Pre-gap length  0:00:02.50
     Peak level 68.3 %
     Extraction speed 7.3 X
     Track quality 100.0 %
     Test CRC 10F0BE76
     Copy CRC 10F0BE76
     Cannot be verified as accurate (confidence 5)  [683E2EE5], AccurateRip returned [A15D6199]  (AR v2)
     Copy OK
Track  9
     Filename D:\Трeкeр torrnada\Sidney Bechet - Runnin' Wild (1998)\09. At The Jazz Band Ball.wav
     Pre-gap length  0:00:02.35
     Peak level 74.8 %
     Extraction speed 7.8 X
     Track quality 100.0 %
     Test CRC 4C1C5919
     Copy CRC 4C1C5919
     Cannot be verified as accurate (confidence 5)  [23563AA4], AccurateRip returned [48AACC1E]  (AR v2)
     Copy OK
Track 10
     Filename D:\Трeкeр torrnada\Sidney Bechet - Runnin' Wild (1998)\10. Joshua Fit The Battle Of Jericho.wav
     Pre-gap length  0:00:02.58
     Peak level 95.4 %
     Extraction speed 7.1 X
     Track quality 99.9 %
     Test CRC 62D0496E
     Copy CRC 62D0496E
     Cannot be verified as accurate (confidence 5)  [9DB1AC43], AccurateRip returned [B3CD24BB]  (AR v2)
     Copy OK
Track 11
     Filename D:\Трeкeр torrnada\Sidney Bechet - Runnin' Wild (1998)\11. Fidgety Feet.wav
     Pre-gap length  0:00:02.30
     Peak level 73.5 %
     Extraction speed 8.2 X
     Track quality 100.0 %
     Test CRC 731C5500
     Copy CRC 731C5500
     Cannot be verified as accurate (confidence 5)  [E0EDD25D], AccurateRip returned [47254A73]  (AR v2)
     Copy OK
Track 12
     Filename D:\Трeкeр torrnada\Sidney Bechet - Runnin' Wild (1998)\12. Tailgate Ramble.wav
     Pre-gap length  0:00:02.23
     Peak level 96.7 %
     Extraction speed 7.2 X
     Track quality 99.9 %
     Test CRC B1312BB0
     Copy CRC B1312BB0
     Cannot be verified as accurate (confidence 5)  [D8C181BC], AccurateRip returned [8FB6F30C]  (AR v2)
     Copy OK
Track 13
     Filename D:\Трeкeр torrnada\Sidney Bechet - Runnin' Wild (1998)\13. Copenhagan.wav
     Pre-gap length  0:00:02.27
     Peak level 75.4 %
     Extraction speed 8.7 X
     Track quality 100.0 %
     Test CRC 9D56CBAD
     Copy CRC 9D56CBAD
     Cannot be verified as accurate (confidence 6)  [CD881288], AccurateRip returned [288E8F7E]  (AR v2)
     Copy OK
Track 14
     Filename D:\Трeкeр torrnada\Sidney Bechet - Runnin' Wild (1998)\14. China Boy.wav
     Pre-gap length  0:00:02.10
     Peak level 76.0 %
     Extraction speed 7.8 X
     Track quality 99.9 %
     Test CRC FC5DF10D
     Copy CRC FC5DF10D
     Cannot be verified as accurate (confidence 6)  [0E530E69], AccurateRip returned [17135FF4]  (AR v2)
     Copy OK
Track 15
     Filename D:\Трeкeр torrnada\Sidney Bechet - Runnin' Wild (1998)\15. Runnin' Wild (alt).wav
     Pre-gap length  0:00:02.48
     Peak level 76.0 %
     Extraction speed 9.3 X
     Track quality 100.0 %
     Test CRC F1166188
     Copy CRC F1166188
     Cannot be verified as accurate (confidence 6)  [074C36D9], AccurateRip returned [CEF6E2AE]  (AR v2)
     Copy OK
Track 16
     Filename D:\Трeкeр torrnada\Sidney Bechet - Runnin' Wild (1998)\16. Runnin' Wild.wav
     Pre-gap length  0:00:02.07
     Peak level 66.6 %
     Extraction speed 8.2 X
     Track quality 99.9 %
     Test CRC 6A40D329
     Copy CRC 6A40D329
     Cannot be verified as accurate (confidence 6)  [8256105D], AccurateRip returned [01E63190]  (AR v2)
     Copy OK
Track 17
     Filename D:\Трeкeр torrnada\Sidney Bechet - Runnin' Wild (1998)\17. Ain't Gonna Give Nobdy None Of My Jelly Roll (alt).wav
     Pre-gap length  0:00:02.18
     Peak level 86.2 %
     Extraction speed 9.8 X
     Track quality 100.0 %
     Test CRC 90BB81D1
     Copy CRC 90BB81D1
     Cannot be verified as accurate (confidence 6)  [EBF58D9A], AccurateRip returned [B378A7AF]  (AR v2)
     Copy OK
Track 18
     Filename D:\Трeкeр torrnada\Sidney Bechet - Runnin' Wild (1998)\18. Ain't Gonna Give Nobdy None Of My Jelly Roll.wav
     Pre-gap length  0:00:02.25
     Peak level 81.1 %
     Extraction speed 9.9 X
     Track quality 100.0 %
     Test CRC 99CF4BBF
     Copy CRC 99CF4BBF
     Cannot be verified as accurate (confidence 6)  [68322365], AccurateRip returned [0912CDDC]  (AR v2)
     Copy OK
Track 19
     Filename D:\Трeкeр torrnada\Sidney Bechet - Runnin' Wild (1998)\19. Mandy Make Up Your Mind.wav
     Pre-gap length  0:00:02.48
     Peak level 86.1 %
     Extraction speed 10.0 X
     Track quality 100.0 %
     Test CRC E783936E
     Copy CRC E783936E
     Cannot be verified as accurate (confidence 6)  [74120726], AccurateRip returned [F4A93D8F]  (AR v2)
     Copy OK
Track 20
     Filename D:\Трeкeр torrnada\Sidney Bechet - Runnin' Wild (1998)\20. Shim-Me-Wa-Wabble.wav
     Pre-gap length  0:00:02.72
     Peak level 95.8 %
     Extraction speed 10.0 X
     Track quality 100.0 %
     Test CRC B987B3CD
     Copy CRC B987B3CD
     Cannot be verified as accurate (confidence 6)  [532B450E], AccurateRip returned [EA830E7A]  (AR v2)
     Copy OK
No tracks could be verified as accurate
You may have a different pressing from the one(s) in the database
No errors occurred
End of status report
==== Log checksum F0237F3967BA4C513F9203C88F1A83F7CCE9D6E77E6B363DEFE564AC4411D7BD ====

Состав

Sidney Bechet (soprano saxophone)
Wild Bill Davidson (cornet)
Bob Diehl (trombone)
Jimmy Archey (trombone)
Art Hodes (piano)
Joe Sullivan (piano)
Walter Page (bass)
Pops Foster (bass)
Fred Moore (drums)
Slick Jones (drums)
[small.torrnada.com].t51369.torrent
Торрент: Зарегистрирован   [ 2014-08-12 10:03 ] · 8CE85356A88C6F65AA13F9005B2C94DC8404E1F6

Скачать .torrent

Скачать

14 KB

Статус: проверено
Скачан: 58 раз
Размер: 318 MB
Оценка:  - (Голосов: 0) СуперХорошоСреднеТак себеОтстой
Поблагодарили: 0  Спасибо
Поделится:


Показать сообщения:    

Текущее время: 25-Авг 05:12

Часовой пояс: UTC + 3


Вы не можете начинать темы
Вы не можете отвечать на сообщения
Вы не можете редактировать свои сообщения
Вы не можете удалять свои сообщения
Вы не можете голосовать в опросах
Вы не можете прикреплять файлы к сообщениям
Вы можете скачивать файлы

!ВНИМАНИЕ!
Сайт не предоставляет электронные версии произведений, а занимается лишь коллекционированием и каталогизацией ссылок, присылаемых и публикуемых на форуме нашими читателями. Если вы являетесь правообладателем какого-либо представленного материала и не желаете, чтобы ссылка на него находилась в нашем каталоге, свяжитесь с нами, и мы незамедлительно удалим ее. Файлы для обмена на трекере предоставлены пользователями сайта, и администрация не несет ответственности за их содержание. Просьба не заливать файлы, защищенные авторскими правами, а также файлы нелегального содержания!