۩ ‼ Вы находитесь на Бесплатном торрент-трекере TORRNADA.com ۩ Зарегистрируйтесь для получения полного доступа ко всем функциям сайта ! ۩ После регистрации подпишитесь на нашу рассылку в своём профиле ۩
Auto Web Pinger

 

[Цитировать]

Тор: Рагнарёк / Thor: Ragnarok (2017) BDRip [H.265/1080p-LQ] [10-bit] [IMAX] - Производство: США / Marvel Studios
Жанр: Фантастика, Боевик, Приключения, Комедия
Режиссер: Тайка Вайтити
Актеры: Крис Хемсворт, Том Хиддлстон, Кейт Бланшетт, Идрис Эльба, Джефф Голдблюм, Тесса Томпсон, Карл Урбан, Марк Руффало, Энтони Хопкинс, Бенедикт Камбербэтч
Описание:
Вернувшись в Асгард в поисках таинственного врага, ведущего охоту на Камни Бесконечности, Тор обнаруживает, что действия его брата Локи, захватившего трон Асгарда, привели к приближению наиболее страшного события — Рагнарёка. По легенде это ознаменует последнюю битву Асгарда, последствием которой станет его полное уничтожение. В попытке предотвратить это событие Тору предстоит прибегнуть к помощи своего товарища из Мстителей — Халка. Вместе им предстоит столкнуться лицом к лицу со злейшим врагом всех девяти миров — огненным демоном Суртуром, целью которого является исполнение пророчества о Рагнарёке и уничтожение девяти миров.

Возраст: 16+ (зрителям, достигшим 16 лет)
Рейтинг MPAA: PG-13 (детям до 13 лет просмотр нежелателен)
Релиз от: M@kSIMus
Продолжительность: 02:10:30
Качество видео: BDRip
Перевод: Дублированный (Лицензия)
Субтитры: Русские (форсированные, полные)
Видео: HEVC/H.265, 1920x1012, ~6776 Kbps
Аудио: AC3, 6 ch, 640 Kbps | Русский
Аудио: AC3, 6 ch, 448 Kbps | Английский

Mediainfo:

Общее
Уникальный идентификатор : 116935193128152643190635332115006808768 (0x57F8E624DA2FE55280D0F6718578E2C0)
Полное имя : Тор - Рагнарёк (2017) [IMAX] BDRip 1080p [HEVC] 10 bit.mkv
Формат : Matroska
Версия формата : Version 4 / Version 2
Размер файла : 7,17 Гбайт
Продолжительность : 2 ч. 10 м.
Общий поток : 7867 Кбит/сек
Название фильма : Rip_by_M@kSIMus
Дата кодирования : UTC 2019-01-07 03:02:14
Программа кодирования : mkvmerge v29.0.0 ('Like It Or Not') 64-bit
Библиотека кодирования : libebml v1.3.6 + libmatroska v1.4.9
Обложка : Yes
Attachments : cover1.jpg
Видео
Идентификатор : 1
Формат : HEVC
Формат/Информация : High Efficiency Video Coding
Профиль формата : Main 10@L4.1@High
Идентификатор кодека : V_MPEGH/ISO/HEVC
Продолжительность : 2 ч. 10 м.
Битрейт : 6776 Кбит/сек
Ширина : 1920 пикселей
Высота : 1012 пикселей
Соотношение сторон : 1,897
Режим частоты кадров : Постоянный
Частота кадров : 23,976 (24000/1001) кадра/сек
Цветовое пространство : YUV
Субдискретизация насыщенности : 4:2:0
Битовая глубина : 10 бит
Бит/(Пиксели*Кадры) : 0.145
Размер потока : 6,18 Гбайт (86%)
Библиотека кодирования : x265 2.9+9-f74003e88622:[Windows][GCC 7.3.0][64 bit] 10bit
Настройки программы : cpuid=1049583 / frame-threads=5 / numa-pools=4 / wpp / no-pmode / no-pme / no-psnr / no-ssim / log-level=3 / input-csp=1 / input-res=1920x1012 / interlace=0 / total-frames=0 / level-idc=41 / high-tier=1 / uhd-bd=0 / ref=4 / allow-non-conformance / no-repeat-headers / annexb / no-aud / no-hrd / info / hash=0 / no-temporal-layers / open-gop / min-keyint=24 / keyint=240 / gop-lookahead=0 / bframes=8 / b-adapt=2 / b-pyramid / bframe-bias=0 / rc-lookahead=40 / lookahead-slices=6 / scenecut=40 / radl=0 / no-intra-refresh / ctu=64 / min-cu-size=8 / no-rect / no-amp / max-tu-size=32 / tu-inter-depth=1 / tu-intra-depth=1 / limit-tu=0 / rdoq-level=0 / dynamic-rd=0.00 / no-ssim-rd / signhide / no-tskip / nr-intra=0 / nr-inter=0 / no-constrained-intra / strong-intra-smoothing / max-merge=2 / limit-refs=3 / no-limit-modes / me=3 / subme=7 / merange=57 / temporal-mvp / weightp / no-weightb / no-analyze-src-pics / deblock=-3:-3 / no-sao / no-sao-non-deblock / rd=3 / no-early-skip / rskip / no-fast-intra / no-tskip-fast / no-cu-lossless / no-b-intra / no-splitrd-skip / rdpenalty=0 / psy-rd=2.00 / psy-rdoq=0.00 / no-rd-refine / no-lossless / cbqpoffs=0 / crqpoffs=0 / rc=crf / crf=17.0 / qcomp=0.75 / qpstep=4 / stats-write=0 / stats-read=0 / vbv-maxrate=50000 / vbv-bufsize=50000 / vbv-init=0.9 / crf-max=0.0 / crf-min=0.0 / ipratio=1.40 / pbratio=1.30 / aq-mode=1 / aq-strength=1.00 / cutree / zone-count=0 / no-strict-cbr / qg-size=32 / no-rc-grain / qpmax=69 / qpmin=0 / no-const-vbv / sar=1 / overscan=0 / videoformat=5 / range=0 / colorprim=1 / transfer=1 / colormatrix=1 / chromaloc=0 / display-window=0 / max-cll=0,0 / min-luma=0 / max-luma=1023 / log2-max-poc-lsb=8 / vui-timing-info / vui-hrd-info / slices=1 / no-opt-qp-pps / no-opt-ref-list-length-pps / no-multi-pass-opt-rps / scenecut-bias=0.05 / no-opt-cu-delta-qp / no-aq-motion / no-hdr / no-hdr-opt / no-dhdr10-opt / no-idr-recovery-sei / analysis-reuse-level=5 / scale-factor=0 / refine-intra=0 / refine-inter=0 / refine-mv=0 / no-limit-sao / ctu-info=0 / no-lowpass-dct / refine-mv-type=0 / copy-pic=1 / max-ausize-factor=1.0 / no-dynamic-refine / no-single-sei
Default : Да
Forced : Нет
Цветовой диапазон : Limited
Основные цвета : BT.709
Характеристики трансфера : BT.709
Коэффициенты матрицы : BT.709
Аудио #1
Идентификатор : 2
Формат : AC-3
Формат/Информация : Audio Coding 3
Идентификатор кодека : A_AC3
Продолжительность : 2 ч. 10 м.
Вид битрейта : Постоянный
Битрейт : 640 Кбит/сек
Каналы : 6 каналов
Расположение каналов : Front: L C R, Side: L R, LFE
Частота : 48,0 КГц
Частота кадров : 31,250 кадров/сек (1536 SPF)
Битовая глубина : 16 бит
Метод сжатия : С потерями
Размер потока : 597 Мбайт (8%)
Заголовок : Дубляж
Язык : Russian
ServiceKind/String : Complete Main
Default : Да
Forced : Нет
Аудио #2
Идентификатор : 3
Формат : AC-3
Формат/Информация : Audio Coding 3
Идентификатор кодека : A_AC3
Продолжительность : 2 ч. 10 м.
Вид битрейта : Постоянный
Битрейт : 448 Кбит/сек
Каналы : 6 каналов
Расположение каналов : Front: L C R, Side: L R, LFE
Частота : 48,0 КГц
Частота кадров : 31,250 кадров/сек (1536 SPF)
Битовая глубина : 16 бит
Метод сжатия : С потерями
Размер потока : 418 Мбайт (6%)
Заголовок : Оригинал
Язык : English
ServiceKind/String : Complete Main
Default : Нет
Forced : Нет
Текст #1
Идентификатор : 4
Формат : UTF-8
Идентификатор кодека : S_TEXT/UTF8
Идентификатор кодека/Информация : UTF-8 Plain Text
Продолжительность : 1 ч. 56 м.
Битрейт : 0 бит/сек
ElementCount : 4
Размер потока : 216 байт (0%)
Заголовок : Forced
Язык : Russian
Default : Да
Forced : Нет
Текст #2
Идентификатор : 5
Формат : UTF-8
Идентификатор кодека : S_TEXT/UTF8
Идентификатор кодека/Информация : UTF-8 Plain Text
Продолжительность : 2 ч. 9 м.
Битрейт : 77 бит/сек
ElementCount : 1576
Размер потока : 73,5 Кбайт (0%)
Заголовок : Full
Язык : Russian
Default : Нет
Forced : Нет
Меню
00:00:00.000 : :Глава 1
00:06:20.670 : :Глава 2
00:06:20.672 : :Глава 3
00:14:11.642 : :Глава 4
00:22:12.873 : :Глава 5
00:26:43.057 : :Глава 6
00:31:29.721 : :Глава 7
00:35:03.934 : :Глава 8
00:42:49.733 : :Глава 9
00:48:31.532 : :Глава 10
00:48:31.534 : :Глава 11
00:59:38.782 : :Глава 12
00:59:38.784 : :Глава 13
01:07:57.907 : :Глава 14
01:17:30.604 : :Глава 15
01:27:25.323 : :Глава 16
01:36:08.720 : :Глава 17
01:42:35.729 : :Глава 18
01:42:35.733 : :Глава 19
01:49:19.886 : :Глава 20
01:54:57.599 : :Глава 21
02:00:37.520 : :Глава 22
02:10:30.447 : :Глава 23
Скриншоты:


Показать сообщения:    

Текущее время: 17-Сен 03:52

Часовой пояс: UTC + 3


Вы не можете начинать темы
Вы не можете отвечать на сообщения
Вы не можете редактировать свои сообщения
Вы не можете удалять свои сообщения
Вы не можете голосовать в опросах
Вы не можете прикреплять файлы к сообщениям
Вы не можете скачивать файлы

!ВНИМАНИЕ!
Сайт не предоставляет электронные версии произведений, а занимается лишь коллекционированием и каталогизацией ссылок, присылаемых и публикуемых на форуме нашими читателями. Если вы являетесь правообладателем какого-либо представленного материала и не желаете, чтобы ссылка на него находилась в нашем каталоге, свяжитесь с нами, и мы незамедлительно удалим ее. Файлы для обмена на трекере предоставлены пользователями сайта, и администрация не несет ответственности за их содержание. Просьба не заливать файлы, защищенные авторскими правами, а также файлы нелегального содержания!