۩ ‼ Вы находитесь на Бесплатном торрент-трекере TORRNADA.com ۩ Зарегистрируйтесь для получения полного доступа ко всем функциям сайта ! ۩ После регистрации подпишитесь на нашу рассылку в своём профиле ۩
Auto Web Pinger

 

[Цитировать]

Queen - We Are The Champions: Final Live In Japan (1985/2019) BDRemux 1080i
Информация о фильме
Оригинальное название: Queen ‎– We Are The Champions: Final Live In Japan
Год выхода: 1985/2019
Жанр: Rock
О фильме:
Концертное видео английской рок-группы Queen. Оно вышло на VHS 1992 году и на DVD в 2004 (только в Японии). На нём показан концерт группы на стадионе «Yoyogi National» в Токио, Япония 11 мая 1985 года. Кроме группы в концерте принимал участие Спайк Эдни, игравший на гитаре и клавишных.
Трек-лист:
1. Opening / Tear It Up
2. Tie Your Mother Down
3. Under Pressure
4. Somebody To Love
5. Killer Queen
6. Seven Seas Of Rhye
7. Keep Yourself Alive
8. Liar / Impromptu
9. It's A Hard Life
10. Now I'm Here
11. Is This The World We Created?
12. Love Of My Life
13. Another One Bites The Dust
14. Hammer To Fall
15. Crazy Little Thing Called Love
16. Bohemian Rhapsody
17. Radio Ga Ga
18. I Want To Break Free
19. Jailhouse Rock
20. We Will Rock You
21. We Are The Champions
22. God Save The Queen

Страна: UK
Продолжительность: 01:28:45
Перевод: нет
Файл
Кодек: MPEG4 Video (H264)
Качество: BDRemux 1080i
Видео: 31.9 Mb/s, 1920x1080, 29.97fps
Звук: PCM, 48000Hz, stereo, 2304kbps, 24 bits
Субтитры: нет

MediaInfo

General
Unique ID : 218281808031280298957163886979651767165 (0xA4378C0AD450D566A0367C810C888B7D)
Complete name : d:DownloadsQueen - We Are The Champions - Final Live In Japan (1985.2019) BDRemux 1080iQueen - We Are The Champions - Final Live In Japan (1985.2019) BDRemux 1080i.mkv
Format : Matroska
Format version : Version 4 / Version 2
File size : 21.2 GiB
Duration : 1 h 28 min
Overall bit rate mode : Variable
Overall bit rate : 34.2 Mb/s
Encoded date : UTC 2019-06-15 17:08:30
Writing application : mkvmerge v8.3.0 ('Over the Horizon') 64bit
Writing library : libebml v1.3.1 + libmatroska v1.4.2 / Lavf58.26.100
Video
ID : 1
Format : AVC
Format/Info : Advanced Video Codec
Format profile : High@L4.1
Format settings : CABAC / 2 Ref Frames
Format settings, CABAC : Yes
Format settings, ReFrames : 2 frames
Format settings, GOP : M=2, N=26
Codec ID : V_MPEG4/ISO/AVC
Duration : 1 h 28 min
Bit rate mode : Variable
Bit rate : 31.9 Mb/s
Width : 1 920 pixels
Height : 1 080 pixels
Display aspect ratio : 16:9
Frame rate mode : Variable
Frame rate : 59.940 FPS
Original frame rate : 29.970 (30000/1001) FPS
Color space : YUV
Chroma subsampling : 4:2:0
Bit depth : 8 bits
Scan type : Interlaced
Scan type, store method : Separated fields
Scan order : Top Field First
Bits/(Pixel*Frame) : 0.257
Stream size : 19.8 GiB (93%)
Language : English
Default : No
Forced : No
Audio
ID : 2
Format : PCM
Format settings : Little / Signed
Codec ID : A_PCM/INT/LIT
Duration : 1 h 28 min
Bit rate mode : Constant
Bit rate : 2 304 kb/s
Channel(s) : 2 channels
Sampling rate : 48.0 kHz
Frame rate : 30.000 FPS (1600 SPF)
Bit depth : 24 bits
Stream size : 1.43 GiB (7%)
Title : Stereo
Language : Japanese
Default : Yes
Forced : No
Menu
00:00:00.000 : :Opening / Tear It Up
00:03:42.222 : :Tie Your Mother Down
00:07:38.758 : :Under Pressure
00:11:01.327 : :Somebody To Love
00:15:10.209 : :Killer Queen
00:17:20.273 : :Seven Seas Of Rhye
00:18:37.183 : :Keep Yourself Alive
00:21:10.269 : :Liar / Impromptu
00:28:26.705 : :It's A Hard Life
00:34:21.226 : :Now I'm Here
00:40:17.415 : :Is This The World We Created?
00:43:28.439 : :Love Of My Life
00:47:33.851 : :Another One Bites The Dust
00:51:50.107 : :Hammer To Fall
00:57:06.556 : :Crazy Little Thing Called Love
01:02:42.225 : :Bohemian Rhapsody
01:08:27.570 : :Radio Ga Ga
01:14:06.442 : :I Want To Break Free
01:17:25.875 : :Jailhouse Rock
01:20:13.809 : :We Will Rock You
01:23:35.844 : :We Are The Champions
01:27:27.242 : :God Save The Queen

Скриншоты



Показать сообщения:    

Текущее время: 21-Июл 22:22

Часовой пояс: UTC + 3


Вы не можете начинать темы
Вы не можете отвечать на сообщения
Вы не можете редактировать свои сообщения
Вы не можете удалять свои сообщения
Вы не можете голосовать в опросах
Вы не можете прикреплять файлы к сообщениям
Вы не можете скачивать файлы

!ВНИМАНИЕ!
Сайт не предоставляет электронные версии произведений, а занимается лишь коллекционированием и каталогизацией ссылок, присылаемых и публикуемых на форуме нашими читателями. Если вы являетесь правообладателем какого-либо представленного материала и не желаете, чтобы ссылка на него находилась в нашем каталоге, свяжитесь с нами, и мы незамедлительно удалим ее. Файлы для обмена на трекере предоставлены пользователями сайта, и администрация не несет ответственности за их содержание. Просьба не заливать файлы, защищенные авторскими правами, а также файлы нелегального содержания!