۩ ‼ Вы находитесь на Бесплатном торрент-трекере TORRNADA.com ۩ Зарегистрируйтесь для получения полного доступа ко всем функциям сайта ! ۩ После регистрации подпишитесь на нашу рассылку в своём профиле ۩
Auto Web Pinger

 

[Цитировать]

Кровь и сокровища / Blood & Treasure Название: Кровь и сокровища
Оригинальное название: Blood & Treasure
Год выпуска: 2019
Жанр: Боевик, приключения
Режиссер: Гай Норман Би, Стив Бойум, Холли Дэйл
В ролях: София Пернас, Мэтт Барр, Катя Винтер, Антонио Цупо, Тони Нэш, Майкл Джеймс Шоу, Джеймс Кэллис, Алисия Коппола, Карл Грабошас, Эйт Бен Аззуоз Брахим
О фильме: Чтобы поймать опасного террориста, который финансирует свои теракты, продавая древние бесценные артефакты, эксперту по предметам старины и профессиональному вору, специализирующегося на кражах редких произведений искусства, приходится объединить свои усилия во благо спасения мира.
Выпущено: США, CBS Television Studios
Продолжительность: ~ 00:45:00
Перевод: Профессиональный двухголосый (TUMBLER Studio)
Качество: WEB-DL
Кодек: XviD
Видео: XviD, ~ 1800 Кбит/с, 720x400
Аудио #1: 48 kHz, AC3 Dolby Digital, 3/2 (L,C,R,l,r) + LFE ch, ~384 kbps | Русский

Информация по видеофайлу

General
Complete name : \\DLINK-E826FB\Volume_2\НОВОЕ СКАЧАННОЕ\Blood.and.Treasure.S01.WEB-DL\Blood.and.Treasure.S01E01-E02.WEB-DL.TUMBLER.Studio.avi
Format : AVI
Format/Info : Audio Video Interleave
File size : 1.27 GiB
Duration : 1h 23mn
Overall bit rate : 2 190 Kbps
Writing library : VirtualDub build 35491/release
Video
ID : 0
Format : MPEG-4 Visual
Format profile : Advanced Simple@L5
Format settings, BVOP : 2
Format settings, QPel : No
Format settings, GMC : No warppoints
Format settings, Matrix : Default (H.263)
Muxing mode : Packed bitstream
Codec ID : XVID
Codec ID/Hint : XviD
Duration : 1h 23mn
Bit rate : 1 796 Kbps
Width : 720 pixels
Height : 400 pixels
Display aspect ratio : 16:9
Frame rate : 23.976 fps
Color space : YUV
Chroma subsampling : 4:2:0
Bit depth : 8 bits
Scan type : Progressive
Compression mode : Lossy
Bits/(Pixel*Frame) : 0.260
Stream size : 1.04 GiB (82%)
Writing library : XviD 67
Audio
ID : 1
Format : AC-3
Format/Info : Audio Coding 3
Mode extension : CM (complete main)
Format settings, Endianness : Big
Codec ID : 2000
Duration : 1h 23mn
Bit rate mode : Constant
Bit rate : 384 Kbps
Channel(s) : 6 channels
Channel positions : Front: L C R, Side: L R, LFE
Sampling rate : 48.0 KHz
Bit depth : 16 bits
Compression mode : Lossy
Stream size : 228 MiB (18%)
Alignment : Aligned on interleaves
Interleave, duration : 42 ms (1.00 video frame)
Interleave, preload duration : 512 ms

Скриншоты



Показать сообщения:    

Текущее время: 17-Июл 17:55

Часовой пояс: UTC + 3


Вы не можете начинать темы
Вы не можете отвечать на сообщения
Вы не можете редактировать свои сообщения
Вы не можете удалять свои сообщения
Вы не можете голосовать в опросах
Вы не можете прикреплять файлы к сообщениям
Вы не можете скачивать файлы

!ВНИМАНИЕ!
Сайт не предоставляет электронные версии произведений, а занимается лишь коллекционированием и каталогизацией ссылок, присылаемых и публикуемых на форуме нашими читателями. Если вы являетесь правообладателем какого-либо представленного материала и не желаете, чтобы ссылка на него находилась в нашем каталоге, свяжитесь с нами, и мы незамедлительно удалим ее. Файлы для обмена на трекере предоставлены пользователями сайта, и администрация не несет ответственности за их содержание. Просьба не заливать файлы, защищенные авторскими правами, а также файлы нелегального содержания!