۩ ‼ Вы находитесь на Бесплатном торрент-трекере TORRNADA.com ۩ Зарегистрируйтесь для получения полного доступа ко всем функциям сайта ! ۩ После регистрации подпишитесь на нашу рассылку в своём профиле ۩
Auto Web Pinger

 

[Цитировать]

«Каждая вещь хранит секрет»Информация о фильме
Название: Хроники ломбарда
Оригинальное название: Pawn Shop Chronicles
Год выхода: 2013
Жанр: криминал, комедия, боевик
Режиссер: Уэйн Крамер
В ролях: Пол Уокер, Мэтт Диллон, Брендан Фрейзер, Кевин О. Ранкин, Винсент Д`Онофрио, Норман Ридус, Чи МакБрайд, Элайджа Вуд, ДиДжей Куаллс, Пелл Джеймс, Лукас Хаас, Сэм Хеннингс, Эшли Симпсон
О фильме: Три разные истории объединяет ломбард в захолустном городишке. Именно там пересекаются персонажи, казалось бы, разных сюжетных линий.
Первая история — криминальная комедия о наркоманах-неудачниках, пытающихся ограбить своего дилера.
Вторая история — триллер, где неожиданная находка в ломбарде кольца пропавшей много лет назад жены приводит мужчину к маньяку, удерживающему в плену 21 девушку.
Третья история — комедия о жизни двойника Элвиса, кочующего со своим шоу по ярмаркам американской провинции.

Страна: США
Продолжительность: 01:52:27
Перевод: Дублированный [студия "Пифагор"]
Субтитры: Русские, Английские (отключаемые)
Файл
Кодек: x.264
Качество: Blu-Ray Remux 1080p
Видео: MPEG-4 AVC, 21906 Кбит/с, 1920x1080, 23.976 кадр/с
Аудио:1 AC3, 6 ch, 384 Кбит/с | RUS
Аудио:2 AC3, 6 ch, 640 кбит/c | ENG

MEDIAINFO

Format : Matroska
Format version : Version 4 / Version 2
File size : 18.0 GiB
Duration : 1h 52mn
Overall bit rate : 22.9 Mbps
Encoded date : UTC 2014-06-20 15:44:27
Writing application : mkvmerge v6.8.0 ('Theme for Great Cities') 64bit built on Mar 2 2014 21:34:26
Writing library : libebml v1.3.0 + libmatroska v1.4.1
Video
ID : 1
Format : AVC
Format/Info : Advanced Video Codec
Format profile : High@L4.1
Format settings, CABAC : Yes
Format settings, ReFrames : 2 frames
Codec ID : V_MPEG4/ISO/AVC
Duration : 1h 52mn
Bit rate mode : Variable
Bit rate : 21.5 Mbps
Width : 1 920 pixels
Height : 1 080 pixels
Display aspect ratio : 16:9
Frame rate : 23.976 fps
Color space : YUV
Chroma subsampling : 4:2:0
Bit depth : 8 bits
Scan type : Progressive
Bits/(Pixel*Frame) : 0.431
Stream size : 16.9 GiB (94%)
Audio #1
ID : 2
Format : AC-3
Format/Info : Audio Coding 3
Mode extension : CM (complete main)
Codec ID : A_AC3
Duration : 1h 52mn
Bit rate mode : Constant
Bit rate : 384 Kbps
Channel(s) : 6 channels
Channel positions : Front: L C R, Side: L R, LFE
Sampling rate : 48.0 KHz
Bit depth : 16 bits
Compression mode : Lossy
Stream size : 309 MiB (2%)
Title : Студия "Пифагор"
Language : Russian
Audio #2
ID : 3
Format : AC-3
Format/Info : Audio Coding 3
Mode extension : CM (complete main)
Codec ID : A_AC3
Duration : 1h 52mn
Bit rate mode : Constant
Bit rate : 640 Kbps
Channel(s) : 6 channels
Channel positions : Front: L C R, Side: L R, LFE
Sampling rate : 48.0 KHz
Bit depth : 16 bits
Compression mode : Lossy
Stream size : 515 MiB (3%)
Language : English
Text #1
ID : 4
Format : UTF-8
Codec ID : S_TEXT/UTF8
Codec ID/Info : UTF-8 Plain Text
Language : Russian
Text #2
ID : 5
Format : UTF-8
Codec ID : S_TEXT/UTF8
Codec ID/Info : UTF-8 Plain Text
Language : English
Menu
00:00:00.000 : :Chapter 01
00:02:47.834 : :Chapter 02
00:13:11.123 : :Chapter 03
00:23:04.758 : :Chapter 04
00:29:43.740 : :Chapter 05
00:37:06.015 : :Chapter 06
00:50:46.042 : :Chapter 07
00:59:36.281 : :Chapter 08
01:12:20.627 : :Chapter 09
01:22:51.716 : :Chapter 10
01:38:35.242 : :Chapter 11
01:44:40.899 : :Chapter 12
01:52:27.490 : :Chapter 13
Не жилим спасибо. Не забываем голосовать за трекер!!!


Показать сообщения:    

Текущее время: 26-Авг 05:35

Часовой пояс: UTC + 3


Вы не можете начинать темы
Вы не можете отвечать на сообщения
Вы не можете редактировать свои сообщения
Вы не можете удалять свои сообщения
Вы не можете голосовать в опросах
Вы не можете прикреплять файлы к сообщениям
Вы не можете скачивать файлы

!ВНИМАНИЕ!
Сайт не предоставляет электронные версии произведений, а занимается лишь коллекционированием и каталогизацией ссылок, присылаемых и публикуемых на форуме нашими читателями. Если вы являетесь правообладателем какого-либо представленного материала и не желаете, чтобы ссылка на него находилась в нашем каталоге, свяжитесь с нами, и мы незамедлительно удалим ее. Файлы для обмена на трекере предоставлены пользователями сайта, и администрация не несет ответственности за их содержание. Просьба не заливать файлы, защищенные авторскими правами, а также файлы нелегального содержания!