۩ ‼ Вы находитесь на Бесплатном торрент-трекере TORRNADA.com ۩ Зарегистрируйтесь для получения полного доступа ко всем функциям сайта ! ۩ После регистрации подпишитесь на нашу рассылку в своём профиле ۩
Auto Web Pinger

 

[Цитировать]

Название: Подрывники
Оригинальное название: Blown Away
Год выпуска: 1994
Страна:США
Жанр: боевик, триллер, драма, криминал
Продолжительность: 02:00:43
Перевод: дублированный, профессиональный многоголосый, профессиональный двухголосый, авторский
Режиссёр: Стивен Хопкинс
В ролях: Джефф Бриджес, Томми Ли Джонс, Сьюзи Эймис, Ллойд Бриджес, Форест Уитакер, Стефи Лайнбург, Джон Финн, Кэйтлин Кларк, Кристофер де Они, Лойд Кэтлетт
Описание: Работающий в полиции сапёр собирается жениться на прекрасной женщине, у которой есть замечательная дочка. Но его будущая жена не знает о прошлом своего мужа. А тот в молодости был ирландским террористом, специализирующимся на взрывах. Когда-то он предотвратил взрыв, в результате которого могли погибнуть сотни людей, но невольно стал причиной гибели своих товарищей и любимой девушки, дочери человека, который увлёк его ложным героизмом этой жестокой борьбы и научил всему, что можно знать о бомбах. Сбежав из тюрьмы, учитель находит неблагодарного ученика и начинает мстить за предательство, убивая его коллег по работе, а в конце планируя убить его новую семью...

Качество: BDRip 1080p Сравнение с исходником
Формат: MKV
Видео: MPEG-4 AVC, 9147 Кбит/с, 1920x800, 23,976 кадра/с
Аудио 1: русский, AC3, 192 kbps, 2 ch, 48 kHz [дублированный]
Аудио 2: русский, DTS, 1509 kbps, 6 ch, 48 kHz [профессиональный многоголосый, R5]
Аудио 3: русский, AC3, 192 kbps, 2 ch, 48 kHz [профессиональный двухголосый, HTB+]
Аудио 4: русский, DTS, 1509 kbps, 6 ch, 48 kHz [авторский, Андрей Гаврилов]
Внешние файлы
Аудио: русский, AC3, 384 kbps, 2 ch, 48 kHz [профессиональный многоголосый, Варус Видео]
Аудио: русский, AC3, 192 kbps, 2 ch, 48 kHz [авторский, Сергей Визгунов]
Аудио: русский, DTS, 1509 kbps, 6 ch, 48 kHz [авторский, Василий Горчаков]
Аудио: русский, DTS, 1509 kbps, 6 ch, 48 kHz [авторский, Ю.Живов]
Аудио: украинский, AC3, 192 kbps, 2 ch, 48 kHz [профессиональный многоголосый, ICTV]
Аудио: украинский, AC3, 192 kbps, 2 ch, 48 kHz [профессиональный двухголосый, 1+1]
Аудио: английский, DTS, 1509 kbps, 6 ch, 48 kHz [оригинал]
Аудио: английский, AC3, 192 kbps, 2 ch, 48 kHz [комментарий]
Субтитры: английские

"Награды"

Премия канала «MTV», 1995 год

Номинации (2):
Лучший злодей (Томми Ли Джонс)
Лучшая экшн-сцена

"Инфо-файл"

Общее
Полное имя : D:VideoПодрывники.1994.BDRip.1080pПодрывники.1994.AVO.rus.В.Горчаков.dts
Формат : DTS
Формат/Информация : Digital Theater Systems
Размер файла : 1,27 Гбайт
Продолжительность : 2 ч. 0 м.
Режим общего битрейта : Постоянный
Общий поток : 1509 Кбит/сек
Аудио
Формат : DTS
Формат/Информация : Digital Theater Systems
Режим : 16
Параметр Endianness формата : Big
Продолжительность : 2 ч. 0 м.
Вид битрейта : Постоянный
Битрейт : 1509 Кбит/сек
Каналы : 6 каналов
Расположение каналов : Front: L C R, Side: L R, LFE
Частота : 48,0 КГц
Битовая глубина : 16 бит
Метод сжатия : С потерями
Размер потока : 1,27 Гбайт (100%)
Общее
Полное имя : D:VideoПодрывники.1994.BDRip.1080pПодрывники.1994.AVO.rus.С.Визгунов.ac3
Формат : AC-3
Формат/Информация : Audio Coding 3
Размер файла : 166 Мбайт
Продолжительность : 2 ч. 0 м.
Режим общего битрейта : Постоянный
Общий поток : 192 Кбит/сек
Аудио
Формат : AC-3
Формат/Информация : Audio Coding 3
Расширение режима : CM (complete main)
Параметр Endianness формата : Big
Продолжительность : 2 ч. 0 м.
Вид битрейта : Постоянный
Битрейт : 192 Кбит/сек
Каналы : 2 канала
Расположение каналов : Front: L R
Частота : 48,0 КГц
Метод сжатия : С потерями
Размер потока : 166 Мбайт (100%)
Общее
Полное имя : D:VideoПодрывники.1994.BDRip.1080pПодрывники.1994.AVO.rus.Ю.Живов.dts
Формат : DTS
Формат/Информация : Digital Theater Systems
Размер файла : 1,27 Гбайт
Продолжительность : 2 ч. 0 м.
Режим общего битрейта : Постоянный
Общий поток : 1509 Кбит/сек
Аудио
Формат : DTS
Формат/Информация : Digital Theater Systems
Режим : 16
Параметр Endianness формата : Big
Продолжительность : 2 ч. 0 м.
Вид битрейта : Постоянный
Битрейт : 1509 Кбит/сек
Каналы : 6 каналов
Расположение каналов : Front: L C R, Side: L R, LFE
Частота : 48,0 КГц
Битовая глубина : 16 бит
Метод сжатия : С потерями
Размер потока : 1,27 Гбайт (100%)
Общее
Уникальный идентификатор : 201288708734606958125480792869752177811 (0x976ECB8FBAFC27E09CBEB28E78B28493)
Полное имя : D:VideoПодрывники.1994.BDRip.1080pПодрывники.1994.BDRip.1080p.mkv
Формат : Matroska
Версия формата : Version 4 / Version 2
Размер файла : 10,8 Гбайт
Продолжительность : 2 ч. 0 м.
Общий поток : 12,8 Мбит/сек
Название фильма : BDRip -- STarankov
Дата кодирования : UTC 2015-07-31 03:01:19
Программа кодирования : mkvmerge v8.2.0 ('World of Adventure') 64bit
Библиотека кодирования : libebml v1.3.1 + libmatroska v1.4.2
DURATION : 02:00:43.008000000
NUMBER_OF_FRAMES : 679032
NUMBER_OF_BYTES : 1366212452
_STATISTICS_WRITING_APP : mkvmerge v8.2.0 ('World of Adventure') 64bit
_STATISTICS_WRITING_DATE_UTC : 2015-07-31 03:01:19
_STATISTICS_TAGS : BPS DURATION NUMBER_OF_FRAMES NUMBER_OF_BYTES
Видео
Идентификатор : 1
Формат : AVC
Формат/Информация : Advanced Video Codec
Профиль формата : High@L4.1
Параметр CABAC формата : Да
Параметр ReFrames формата : 4 кадра
Идентификатор кодека : V_MPEG4/ISO/AVC
Продолжительность : 2 ч. 0 м.
Битрейт : 9147 Кбит/сек
Ширина : 1920 пикселей
Высота : 800 пикселей
Соотношение сторон : 2,40:1
Режим частоты кадров : Постоянный
Частота кадров : 23,976 кадра/сек
Цветовое пространство : YUV
Субдискретизация насыщенности : 4:2:0
Битовая глубина : 8 бит
Тип развёртки : Прогрессивная
Бит/(Пиксели*Кадры) : 0.248
Размер потока : 7,71 Гбайт (71%)
Библиотека кодирования : x264 core 146 r2538 121396c
Настройки программы : cabac=1 / ref=4 / deblock=1:-3:-3 / analyse=0x3:0x113 / me=umh / subme=10 / psy=1 / psy_rd=1.00:0.15 / mixed_ref=1 / me_range=32 / chroma_me=1 / trellis=2 / 8x8dct=1 / cqm=0 / deadzone=21,11 / fast_pskip=1 / chroma_qp_offset=-3 / threads=6 / lookahead_threads=1 / sliced_threads=0 / nr=0 / decimate=1 / interlaced=0 / bluray_compat=0 / constrained_intra=0 / bframes=12 / b_pyramid=2 / b_adapt=2 / b_bias=0 / direct=1 / weightb=1 / open_gop=0 / weightp=2 / keyint=230 / keyint_min=23 / scenecut=40 / intra_refresh=0 / rc_lookahead=40 / rc=crf / mbtree=0 / crf=20.1 / qcomp=0.60 / qpmin=0 / qpmax=69 / qpstep=4 / vbv_maxrate=40000 / vbv_bufsize=50000 / crf_max=0.0 / nal_hrd=none / filler=0 / ip_ratio=1.40 / pb_ratio=1.30 / aq=1:1.00
Язык : English
Default : Да
Forced : Нет
DURATION : 02:00:42.569000000
NUMBER_OF_FRAMES : 173648
NUMBER_OF_BYTES : 8508498362
_STATISTICS_WRITING_APP : mkvmerge v8.2.0 ('World of Adventure') 64bit
_STATISTICS_WRITING_DATE_UTC : 2015-07-31 03:01:19
_STATISTICS_TAGS : BPS DURATION NUMBER_OF_FRAMES NUMBER_OF_BYTES
Аудио #1
Идентификатор : 2
Формат : AC-3
Формат/Информация : Audio Coding 3
Расширение режима : CM (complete main)
Параметр Endianness формата : Big
Идентификатор кодека : A_AC3
Продолжительность : 2 ч. 0 м.
Вид битрейта : Постоянный
Битрейт : 192 Кбит/сек
Каналы : 2 канала
Расположение каналов : Front: L R
Частота : 48,0 КГц
Метод сжатия : С потерями
Размер потока : 166 Мбайт (1%)
Заголовок : DUB
Язык : Russian
Default : Да
Forced : Нет
Аудио #2
Идентификатор : 3
Формат : DTS
Формат/Информация : Digital Theater Systems
Режим : 16
Параметр Endianness формата : Big
Идентификатор кодека : A_DTS
Продолжительность : 2 ч. 0 м.
Вид битрейта : Постоянный
Битрейт : 1509 Кбит/сек
Каналы : 6 каналов
Расположение каналов : Front: L C R, Side: L R, LFE
Частота : 48,0 КГц
Битовая глубина : 16 бит
Метод сжатия : С потерями
Размер потока : 1,27 Гбайт (12%)
Заголовок : MVO (R5)
Язык : Russian
Default : Нет
Forced : Нет
Аудио #3
Идентификатор : 4
Формат : AC-3
Формат/Информация : Audio Coding 3
Расширение режима : CM (complete main)
Параметр Endianness формата : Big
Идентификатор кодека : A_AC3
Продолжительность : 2 ч. 0 м.
Вид битрейта : Постоянный
Битрейт : 192 Кбит/сек
Каналы : 2 канала
Расположение каналов : Front: L R
Частота : 48,0 КГц
Метод сжатия : С потерями
Размер потока : 166 Мбайт (1%)
Заголовок : DVO (HTB+)
Язык : Russian
Default : Нет
Forced : Нет
Аудио #4
Идентификатор : 5
Формат : DTS
Формат/Информация : Digital Theater Systems
Режим : 16
Параметр Endianness формата : Big
Идентификатор кодека : A_DTS
Продолжительность : 2 ч. 0 м.
Вид битрейта : Постоянный
Битрейт : 1509 Кбит/сек
Каналы : 6 каналов
Расположение каналов : Front: L C R, Side: L R, LFE
Частота : 48,0 КГц
Битовая глубина : 16 бит
Метод сжатия : С потерями
Размер потока : 1,27 Гбайт (12%)
Заголовок : AVO (Андрей Гаврилов)
Язык : Russian
Default : Нет
Forced : Нет
Общее
Полное имя : D:VideoПодрывники.1994.BDRip.1080pПодрывники.1994.Commentary.eng.ac3
Формат : AC-3
Формат/Информация : Audio Coding 3
Размер файла : 166 Мбайт
Продолжительность : 2 ч. 0 м.
Режим общего битрейта : Постоянный
Общий поток : 192 Кбит/сек
Аудио
Формат : AC-3
Формат/Информация : Audio Coding 3
Расширение режима : CM (complete main)
Параметр Endianness формата : Big
Продолжительность : 2 ч. 0 м.
Вид битрейта : Постоянный
Битрейт : 192 Кбит/сек
Каналы : 2 канала
Расположение каналов : Front: L R
Частота : 48,0 КГц
Метод сжатия : С потерями
Размер потока : 166 Мбайт (100%)
Общее
Полное имя : D:VideoПодрывники.1994.BDRip.1080pПодрывники.1994.DVO.ukr.1+1.ac3
Формат : AC-3
Формат/Информация : Audio Coding 3
Размер файла : 166 Мбайт
Продолжительность : 2 ч. 0 м.
Режим общего битрейта : Постоянный
Общий поток : 192 Кбит/сек
Аудио
Формат : AC-3
Формат/Информация : Audio Coding 3
Расширение режима : CM (complete main)
Параметр Endianness формата : Big
Продолжительность : 2 ч. 0 м.
Вид битрейта : Постоянный
Битрейт : 192 Кбит/сек
Каналы : 2 канала
Расположение каналов : Front: L R
Частота : 48,0 КГц
Метод сжатия : С потерями
Размер потока : 166 Мбайт (100%)
Общее
Полное имя : D:VideoПодрывники.1994.BDRip.1080pПодрывники.1994.eng.srt
Размер файла : 155 Кбайт
Общее
Полное имя : D:VideoПодрывники.1994.BDRip.1080pПодрывники.1994.MVO.rus.Варус Видео.ac3
Формат : AC-3
Формат/Информация : Audio Coding 3
Размер файла : 332 Мбайт
Продолжительность : 2 ч. 0 м.
Режим общего битрейта : Постоянный
Общий поток : 384 Кбит/сек
Аудио
Формат : AC-3
Формат/Информация : Audio Coding 3
Расширение режима : CM (complete main)
Параметр Endianness формата : Big
Продолжительность : 2 ч. 0 м.
Вид битрейта : Постоянный
Битрейт : 384 Кбит/сек
Каналы : 2 канала
Расположение каналов : Front: L R
Частота : 48,0 КГц
Метод сжатия : С потерями
Размер потока : 332 Мбайт (100%)
Общее
Полное имя : D:VideoПодрывники.1994.BDRip.1080pПодрывники.1994.MVO.ukr.ICTV.ac3
Формат : AC-3
Формат/Информация : Audio Coding 3
Размер файла : 166 Мбайт
Продолжительность : 2 ч. 0 м.
Режим общего битрейта : Постоянный
Общий поток : 192 Кбит/сек
Аудио
Формат : AC-3
Формат/Информация : Audio Coding 3
Расширение режима : CM (complete main)
Параметр Endianness формата : Big
Продолжительность : 2 ч. 0 м.
Вид битрейта : Постоянный
Битрейт : 192 Кбит/сек
Каналы : 2 канала
Расположение каналов : Front: L R
Частота : 48,0 КГц
Метод сжатия : С потерями
Размер потока : 166 Мбайт (100%)
Общее
Полное имя : D:VideoПодрывники.1994.BDRip.1080pПодрывники.1994.Original.eng.dts
Формат : DTS
Формат/Информация : Digital Theater Systems
Размер файла : 1,27 Гбайт
Продолжительность : 2 ч. 0 м.
Режим общего битрейта : Постоянный
Общий поток : 1509 Кбит/сек
Аудио
Формат : DTS
Формат/Информация : Digital Theater Systems
Режим : 16
Параметр Endianness формата : Big
Продолжительность : 2 ч. 0 м.
Вид битрейта : Постоянный
Битрейт : 1509 Кбит/сек
Каналы : 6 каналов
Расположение каналов : Front: L C R, Side: L R, LFE
Частота : 48,0 КГц
Битовая глубина : 16 бит
Метод сжатия : С потерями
Размер потока : 1,27 Гбайт (100%)

"Скриншоты"

Не жилим спасибо. Не забываем голосовать за трекер!!!


Показать сообщения:    

Текущее время: 27-Май 16:35

Часовой пояс: UTC + 3


Вы не можете начинать темы
Вы не можете отвечать на сообщения
Вы не можете редактировать свои сообщения
Вы не можете удалять свои сообщения
Вы не можете голосовать в опросах
Вы не можете прикреплять файлы к сообщениям
Вы не можете скачивать файлы

!ВНИМАНИЕ!
Сайт не предоставляет электронные версии произведений, а занимается лишь коллекционированием и каталогизацией ссылок, присылаемых и публикуемых на форуме нашими читателями. Если вы являетесь правообладателем какого-либо представленного материала и не желаете, чтобы ссылка на него находилась в нашем каталоге, свяжитесь с нами, и мы незамедлительно удалим ее. Файлы для обмена на трекере предоставлены пользователями сайта, и администрация не несет ответственности за их содержание. Просьба не заливать файлы, защищенные авторскими правами, а также файлы нелегального содержания!