۩ ‼ Вы находитесь на Бесплатном торрент-трекере TORRNADA.com ۩ Зарегистрируйтесь для получения полного доступа ко всем функциям сайта ! ۩ После регистрации подпишитесь на нашу рассылку в своём профиле ۩
Auto Web Pinger

 

[Цитировать]

Вычислитель (2014) BDRip [H.264]«Он знает, что будет»- Производство: Россия / Art Pictures Studio, ВГТРК
Жанр: фантастика
Режиссер: Дмитрий Грачев
Продюсер: Алексей Куренков, Дмитрий Медников, Фёдор Бондарчук
Актеры: Евгений Миронов, Винни Джонс, Анна Чиповская, Иван Верховых, Владас Багдонас, Алексей Колубков, Никита Панфилов, Линда Нигматулина, Пётр Сковцов, Ирене Мускара
Описание:
Десять заключенных, приговоренных к пожизненному изгнанию с планеты XT-59, отправляются в опасный путь через Саргассово Болото. Группа сразу делится на две части: Эрвин и Кристи идут на поиск Счастливых Островов, Юст ведет остальных к Гнилой Мели. Однако долгое время их маршруты практически совпадают. В первый же вечер Эрвин понимает, что его должны убить – в прошлой жизни он занимал слишком высокий пост, и теперь он опасен для тех, кто пришел к власти. Выбрав в попутчицы Кристи, он сразу старается уйти подальше от остальных членов группы, чтобы обезопасить себя. На пути к Счастливым островам герои преодолевают массу препятствий. Цена этому — свобода и счастье.

Дата российской премьеры: 18 декабря 2014, «Централ Партнершип»
Продолжительность: 01:23:12
Качество: BDRip [H.264]
Перевод: Не требуется (Лицензия Blu-ray FRE)
Субтитры: Отсутствуют
Видео: 912x384 (2,40:1), 25 fps, MPEG-4 AVC/H.264 ~1120 kbps avg, 0.128 bit/pixel
Аудио: 48 kHz, MP3, 2 ch, ~128 kbps | русский

MediaInfo

Код: General
General
Unique ID : 171159870450305705959593598242438260884 (0x80C43125747CBC10A84FC28723102894)
Complete name : Titanium.2014.BDRip AVC.740mb.mkv
Format : Matroska
Format version : Version 4 / Version 2
File size : 741 MiB
Duration : 1h 23mn
Overall bit rate : 1 245 Kbps
Encoded date : UTC 2015-07-27 12:20:29
Writing application : mkvmerge v7.3.0 ('Nouages') 64bit built on Oct 22 2014 18:53:34
Writing library : libebml v1.3.0 + libmatroska v1.4.1
DURATION : 01:23:12.912000000
NUMBER_OF_FRAMES : 208038
NUMBER_OF_BYTES : 79886592
_STATISTICS_WRITING_APP : mkvmerge v7.3.0 ('Nouages') 64bit built on Oct 22 2014 18:53:34
_STATISTICS_WRITING_DATE_UTC : 2015-07-27 12:20:29
_STATISTICS_TAGS : BPS DURATION NUMBER_OF_FRAMES NUMBER_OF_BYTES
Video
ID : 1
Format : AVC
Format/Info : Advanced Video Codec
Format profile : High@L4.1Format settings, CABAC : Yes
Format settings, ReFrames : 16 frames
Codec ID : V_MPEG4/ISO/AVC
Duration : 1h 23mn
Bit rate : 1 120 Kbps
Width : 912 pixels
Height : 384 pixels
Display aspect ratio : 2.40:1
Frame rate mode : Constant
Frame rate : 25.000 fps
Color space : YUV
Chroma subsampling : 4:2:0
Bit depth : 8 bits
Scan type : Progressive
Bits/(Pixel*Frame) : 0.128
Stream size : 650 MiB (88%)
Writing library : x264 core 146 r2538bm 121396c
Encoding settings : cabac=1 / ref=16 / deblock=1:1:1 / analyse=0x3:0x133 / me=umh / subme=10 / psy=1 / psy_rd=0.40:0.00 / mixed_ref=1 / me_range=24 / chroma_me=1 / trellis=2 / 8x8dct=1 / cqm=0 / deadzone=21,11 / fast_pskip=1 / chroma_qp_offset=-2 / threads=3 / lookahead_threads=1 / sliced_threads=0 / nr=0 / decimate=1 / interlaced=0 / bluray_compat=0 / constrained_intra=0 / bframes=10 / b_pyramid=2 / b_adapt=2 / b_bias=0 / direct=3 / weightb=1 / open_gop=0 / weightp=2 / keyint=250 / keyint_min=25 / scenecut=40 / intra_refresh=0 / rc_lookahead=60 / rc=2pass / mbtree=1 / bitrate=1120 / ratetol=1.0 / qcomp=0.60 / qpmin=0 / qpmax=69 / qpstep=4 / cplxblur=20.0 / qblur=0.5 / ip_ratio=1.40 / aq=1:0.60
Language : English
Default : Yes
Forced : No
DURATION : 01:23:12.680000000
NUMBER_OF_FRAMES : 124817
NUMBER_OF_BYTES : 695928012
_STATISTICS_WRITING_APP : mkvmerge v7.3.0 ('Nouages') 64bit built on Oct 22 2014 18:53:34
_STATISTICS_WRITING_DATE_UTC : 2015-07-27 12:20:29
_STATISTICS_TAGS : BPS DURATION NUMBER_OF_FRAMES NUMBER_OF_BYTES
Audio
ID : 2
Format : MPEG Audio
Format version : Version 1
Format profile : Layer 3
Mode : Joint stereo
Mode extension : MS Stereo
Codec ID : A_MPEG/L3
Codec ID/Hint : MP3
Duration : 1h 23mn
Bit rate mode : Constant
Bit rate : 128 Kbps
Channel count : 2 channels
Sampling rate : 48.0 KHz
Compression mode : Lossy
Stream size : 76.2 MiB (10%)
Writing library : LAME3.97
Language : Russian
Default : Yes
Forced : No

Награды и премии

Жорж, 2015 год
Номинации (1):
Лучший российский экшн

Интересные факты

• Фильм снимался в той же местности, что и «Ной» (2014), «Обливион» (2013), «Фауст» (2011).
• Для фильма был разработан письменный язык, которым пользуются жители планеты XT-59.
• Одичавших преступников-каннибалов сыграли профессиональные исландские артисты, которые совмещают работу в театре и, например, на почте.
• Съемки продолжались 22 дня, семнадцать из которых группа провела в Исландии.
Скриншоты:
Время раздачи: 24/7


Показать сообщения:    

Текущее время: 27-Май 16:44

Часовой пояс: UTC + 3


Вы не можете начинать темы
Вы не можете отвечать на сообщения
Вы не можете редактировать свои сообщения
Вы не можете удалять свои сообщения
Вы не можете голосовать в опросах
Вы не можете прикреплять файлы к сообщениям
Вы не можете скачивать файлы

!ВНИМАНИЕ!
Сайт не предоставляет электронные версии произведений, а занимается лишь коллекционированием и каталогизацией ссылок, присылаемых и публикуемых на форуме нашими читателями. Если вы являетесь правообладателем какого-либо представленного материала и не желаете, чтобы ссылка на него находилась в нашем каталоге, свяжитесь с нами, и мы незамедлительно удалим ее. Файлы для обмена на трекере предоставлены пользователями сайта, и администрация не несет ответственности за их содержание. Просьба не заливать файлы, защищенные авторскими правами, а также файлы нелегального содержания!