۩ ‼ Вы находитесь на Бесплатном торрент-трекере TORRNADA.com ۩ Зарегистрируйтесь для получения полного доступа ко всем функциям сайта ! ۩ После регистрации подпишитесь на нашу рассылку в своём профиле ۩
Auto Web Pinger

 

[Цитировать]

Смертельный друг / Deadly Friend (1986) DVDRip [H.264] - Производство: США / Layton, Pan Arts, Warner Bros. Pictures
Жанр: Ужасы, Фантастика, Триллер, Драма
Режиссер: Уэс Крэйвен
Актеры: Мэттью Лаборто, Кристи Суонсон, Майкл Шарретт, Энн Твоми, Энн Рэмси, Ричард Маркус, Расс Марин, Ли Пол, Эндрю Роперто, Чарльз Флайшер
Описание:
В центре сюжета — 15-летний Пол Конвэй, «сдвинутый на фантастике» тинэйджер, который приезжает в небольшой городок для изучения искусственного интеллекта в местном университете.
Друг Пола, робот по имени БиБи, — собственное творение героя, а новая подружка — очаровательная девушка по имени Саманта, живущая по соседству.
Когда в результате трагических событий молодой ученый теряет своих друзей, он решает воскресить свою погибшую возлюбленную. Но, как и несчастный доктор Франкенштейн, слишком поздно понимает, что его новое создание — кровожадный монстр!

Продолжительность: 01:30:24
Качество видео: DVDRip
Перевод: Многоголосый закадровый (Премьер Видео Фильм)
Субтитры: Отсутствуют
Видео: AVC/H.264, 720x400, ~1787 Kbps
Аудио 1: Русский, AC3, 2 ch, 192 Kbps, 48.0 kHz
Аудио 2: Английский, AC3, 1 ch, 192 Kbps, 48.0 kHz

Mediainfo:

Код:
General
Unique ID : 177795309105472745828853013513963716561 (0x85C22187C287D8478B407225077A3FD1)
Complete name : F:\Downloads\Смертельный Друг.mkv
Format : Matroska
Format version : Version 4 / Version 2
File size : 1.37 GiB
Duration : 1h 30mn
Overall bit rate : 2 173 Kbps
Encoded date : UTC 2015-07-26 22:28:08
Writing application : mkvmerge v7.0.0 ('Where We Going') 32bit built on Jun 9 2014 15:08:34
Writing library : libebml v1.3.0 + libmatroska v1.4.1
DURATION : 01:30:24.992000000
NUMBER_OF_FRAMES : 169531
NUMBER_OF_BYTES : 130199808
_STATISTICS_WRITING_APP : mkvmerge v7.0.0 ('Where We Going') 32bit built on Jun 9 2014 15:08:34
_STATISTICS_WRITING_DATE_UTC : 2015-07-26 22:28:08
_STATISTICS_TAGS : BPS DURATION NUMBER_OF_FRAMES NUMBER_OF_BYTES
Video
ID : 1
Format : AVC
Format/Info : Advanced Video Codec
Format profile : High@L3.1Format settings, CABAC : Yes
Format settings, ReFrames : 8 frames
Codec ID : V_MPEG4/ISO/AVC
Duration : 1h 30mn
Bit rate : 1 787 Kbps
Width : 720 pixels
Height : 400 pixels
Display aspect ratio : 16:9
Frame rate mode : Constant
Frame rate : 23.976 fps
Color space : YUV
Chroma subsampling : 4:2:0
Bit depth : 8 bits
Scan type : Progressive
Bits/(Pixel*Frame) : 0.259
Stream size : 1.10 GiB (80%)
Title : Deadly Friend
Writing library : x264 core 125 r2208 d9d2288
Encoding settings : cabac=1 / ref=8 / deblock=1:-1:-1 / analyse=0x3:0x133 / me=umh / subme=9 / psy=1 / psy_rd=1.00:0.10 / mixed_ref=1 / me_range=32 / chroma_me=1 / trellis=2 / 8x8dct=1 / cqm=0 / deadzone=21,11 / fast_pskip=0 / chroma_qp_offset=-3 / threads=6 / lookahead_threads=1 / sliced_threads=0 / nr=0 / decimate=1 / interlaced=0 / bluray_compat=0 / constrained_intra=0 / bframes=3 / b_pyramid=2 / b_adapt=2 / b_bias=0 / direct=3 / weightb=1 / open_gop=0 / weightp=2 / keyint=250 / keyint_min=25 / scenecut=40 / intra_refresh=0 / rc_lookahead=60 / rc=2pass / mbtree=1 / bitrate=1787 / ratetol=1.0 / qcomp=0.60 / qpmin=0 / qpmax=69 / qpstep=4 / cplxblur=20.0 / qblur=0.5 / ip_ratio=1.40 / aq=1:1.00
Language : English
Default : Yes
Forced : No
Audio #1
ID : 2
Format : AC-3
Format/Info : Audio Coding 3
Mode extension : CM (complete main)
Format settings, Endianness : Big
Codec ID : A_AC3
Duration : 1h 30mn
Bit rate mode : Constant
Bit rate : 192 Kbps
Channel(s) : 2 channels
Channel positions : Front: L R
Sampling rate : 48.0 KHz
Bit depth : 16 bits
Compression mode : Lossy
Stream size : 124 MiB (9%)
Title : Многоголосый закадровый, Премьер Видео Фильм
Language : Russian
Default : Yes
Forced : No
Audio #2
ID : 3
Format : AC-3
Format/Info : Audio Coding 3
Mode extension : CM (complete main)
Format settings, Endianness : Big
Codec ID : A_AC3
Duration : 1h 30mn
Bit rate mode : Constant
Bit rate : 192 Kbps
Channel(s) : 1 channel
Channel positions : Front: C
Sampling rate : 48.0 KHz
Bit depth : 16 bits
Compression mode : Lossy
Stream size : 124 MiB (9%)
Title : Оригинал
Language : English
Default : No
Forced : No

Дополнительные скриншоты:

Время раздачи: с 14:00 до 02:00 МСК (выходные круглосуточно), до 10 скачавших


Показать сообщения:    

Текущее время: 25-Май 10:06

Часовой пояс: UTC + 3


Вы не можете начинать темы
Вы не можете отвечать на сообщения
Вы не можете редактировать свои сообщения
Вы не можете удалять свои сообщения
Вы не можете голосовать в опросах
Вы не можете прикреплять файлы к сообщениям
Вы не можете скачивать файлы

!ВНИМАНИЕ!
Сайт не предоставляет электронные версии произведений, а занимается лишь коллекционированием и каталогизацией ссылок, присылаемых и публикуемых на форуме нашими читателями. Если вы являетесь правообладателем какого-либо представленного материала и не желаете, чтобы ссылка на него находилась в нашем каталоге, свяжитесь с нами, и мы незамедлительно удалим ее. Файлы для обмена на трекере предоставлены пользователями сайта, и администрация не несет ответственности за их содержание. Просьба не заливать файлы, защищенные авторскими правами, а также файлы нелегального содержания!