۩ ‼ Вы находитесь на Бесплатном торрент-трекере TORRNADA.com ۩ Зарегистрируйтесь для получения полного доступа ко всем функциям сайта ! ۩ После регистрации подпишитесь на нашу рассылку в своём профиле ۩
Auto Web Pinger

 

[Цитировать]

Убрать из друзей / Unfriended (2015) WEB-DLRip -«С такими друзьями враги не нужны»- Производство: США, Россия | Bazelevs Production, Blumhouse Productions
Жанр: Ужасы, Триллер
Режиссер: Леван Габриадзе
Продюсер: Тимур Бекмамбетов, Нельсон Гривз, Джейсон Блум
Актеры: Шелли Хенниг, Моусес Сторм, Рени Олстэд, Уилл Пельтц, Джейкоб Высоцки, Кортни, Хэлверсон, Хезер Соссамэн, Мэттью Борер, Мики Ривер, Кэл Барнс
Описание:
Обычный вечер после школы. К скайпу влюбленных Блэр и Митча подключаются друзья — Адам, Джес, Кен и Вэл… и кто-то седьмой с ником Billy227. Все уверены, что это компьютерный глюк, пока неизвестный не начинает им писать. Билли хочет знать, кто выложил в Сеть скандальное видео с их одноклассницей Лорой Барнс, из-за которого девушка покончила с собой. И он готов выяснить это любой ценой. Друзьям кажется, что можно просто выйти из чата, но это только кажется.

Продолжительность: 01:22:01
Качество видео: WEB-DLRip
Перевод: Дублированный
Вид субтитров: Отсутствуют
Примечание: Русский локализованный видеоряд.
Видео: Xvid, 720x400, ~1886 kb/s
Аудио: AC3, 6 ch, 384 kb/s
Семпл: Скачать

Mediainfo:

Код:
Общее
Полное имя :Ubrat.iz.Druzey.2015.D.WEB-DLRip.torrnada.avi
Формат : AVI
Формат/Информация : Audio Video Interleave
Размер файла : 1,31 Гбайт
Продолжительность : 1 ч. 22 м.
Общий поток : 2280 Кбит/сек
Программа кодирования : VirtualDubMod 1.5.10.3 | | (build 2550/release)
Библиотека кодирования : VirtualDubMod build 2550/release
Видео
Идентификатор : 0
Формат : MPEG-4 Visual
Профиль формата : Advanced Simple@L5
Параметр BVOP формата : 2
Параметр QPel формата : Нет
Параметр GMC формата : Без точки перехода
Параметр матрицы формата : Default (H.263)
Идентификатор кодека : XVID
Идентификатор кодека/Подсказка : XviD
Продолжительность : 1 ч. 22 м.
Битрейт : 1886 Кбит/сек
Ширина : 720 пикселей
Высота : 400 пикселей
Соотношение сторон : 16:9
Частота кадров : 24,000 кадра/сек
Цветовое пространство : YUV
Субдискретизация насыщенности : 4:2:0
Битовая глубина : 8 бит
Тип развёртки : Прогрессивная
Метод сжатия : С потерями
Бит/(Пиксели*Кадры) : 0.273
Размер потока : 1,08 Гбайт (83%)
Библиотека кодирования : XviD 1.2.1 (UTC 2008-12-04)
Аудио
Идентификатор : 1
Формат : AC-3
Формат/Информация : Audio Coding 3
Расширение режима : CM (complete main)
Параметр Endianness формата : Big
Идентификатор кодека : 2000
Продолжительность : 1 ч. 22 м.
Вид битрейта : Постоянный
Битрейт : 384 Кбит/сек
Каналы : 6 каналов
Расположение каналов : Front: L C R, Side: L R, LFE
Частота : 48,0 КГц
Битовая глубина : 16 бит
Метод сжатия : С потерями
Размер потока : 225 Мбайт (17%)
Выравнивание : Разделение по промежуткам
Продолжительность промежутка : 42 мс. (1,00 видеокадр)
Время предзагрузки промежутка : 500 мс.
Скриншоты:
Не жилим спасибо. Не забываем голосовать за трекер!!!

[Цитировать]

Фильм снят очень интересно, эффектно и качественно, что довольно необычно для "молодежного" ужастика. Да и сюжет достаточно оригинальный, очень современный. Видно, что сценаристы и актеры хорошо поработали. Возможно, фильм не поймут те, кто постарше, но для молодежи, для которой он и был снят, фильм подойдет идеально. Я смотрела с удовольствием, всем советую.

[Цитировать]

И снова молодежное кино...Молодежь у нас что неисчерпаемый объект для киноиндустрии? Молодежные ужастики и триллеры переживают серьезный кризис, последний стоящий - "Крик", вышедший много лет назад. Кино "Убрать из друзей" пытается сыграть на модных интернет-технологиях, подростковой психологии (самоубийства), вводит смазливых (но неплохо играющих) актеров. В итоге создается ощущение, что ты смотришь второсортное кино с зализанным и нелепым сюжетом, но неплохими актерами. Вы можете посмотреть это кино, если Вам 12, но если больше, то не надо

[Цитировать]

Очень интересный ужастик.Я очень люблю фильмы, жанра "ужасы". Очень порадовал этот фильм, сделан очень профессионально, интересный сюжет. Если судить фильм по 10-и бальной системе, то ему можно присвоить 8/10, так как есть моменты, которые можно выкинуть с фильма. Подросткам должно очень понравится. Смотрел со своей семьей, фильм всем понравился, никто не остался не доволен.


Показать сообщения:    

Текущее время: 22-Июл 19:49

Часовой пояс: UTC + 3


Вы не можете начинать темы
Вы не можете отвечать на сообщения
Вы не можете редактировать свои сообщения
Вы не можете удалять свои сообщения
Вы не можете голосовать в опросах
Вы не можете прикреплять файлы к сообщениям
Вы не можете скачивать файлы

!ВНИМАНИЕ!
Сайт не предоставляет электронные версии произведений, а занимается лишь коллекционированием и каталогизацией ссылок, присылаемых и публикуемых на форуме нашими читателями. Если вы являетесь правообладателем какого-либо представленного материала и не желаете, чтобы ссылка на него находилась в нашем каталоге, свяжитесь с нами, и мы незамедлительно удалим ее. Файлы для обмена на трекере предоставлены пользователями сайта, и администрация не несет ответственности за их содержание. Просьба не заливать файлы, защищенные авторскими правами, а также файлы нелегального содержания!