۩ ‼ Вы находитесь на Бесплатном торрент-трекере TORRNADA.com ۩ Зарегистрируйтесь для получения полного доступа ко всем функциям сайта ! ۩ После регистрации подпишитесь на нашу рассылку в своём профиле ۩
Auto Web Pinger

 

[Цитировать]

Праздник святого Йоргена (1930) DVD5 - Производство: СССР, Межрабпом
Жанр: Комедия, немое кино
Режиссер: Яков Протазанов
Актеры: Игорь Ильинский, Михаил Климов, Мария Стрелкова, Анатолий Кторов, Владимир Уральский, Иван Аркадин, Анатолий Горюнов, Феофан Шипулинский, Леонид Оболенский
Описание:
Накануне церковного праздника из тюрьмы бежит вор Коркис. Смешавшись с толпой прихожан, герой вместе с сообщником оказывается у храма. Увидев, сколько денег оседает в карманах священнослужителей, Коркис не может удержаться от очередной авантюры...
Титры написаны Ильей Ильфом и Евгением Петровом.

Продолжительность: 01:19:59
Качество видео: DVD5
Видео: MPEG-2, 720x576, ~6887 kbps
Аудио: AC3, 2 ch, 256 kbps, CBR

Mediainfo:

General
Complete name                  : E:\Праздник святого Йоргена. 1930\VIDEO_TS\VTS_01_1.VOB
Format                         : MPEG-PS
File size                      : 1 024 MiB
Duration                       : 19mn 38s
Overall bit rate mode          : Variable
Overall bit rate               : 7 288 Kbps
Video
ID                             : 224 (0xE0)
Format                         : MPEG Video
Format version                 : Version 2
Format profile                 : Main@Main
Format settings, BVOP          : Yes
Format settings, Matrix        : Custom
Format settings, GOP           : M=3, N=12
Format settings, picture struc : Frame
Duration                       : 19mn 38s
Bit rate mode                  : Variable
Bit rate                       : 6 887 Kbps
Maximum bit rate               : 7 144 Kbps
Width                          : 720 pixels
Height                         : 576 pixels
Display aspect ratio           : 4:3
Frame rate                     : 25.000 fps
Standard                       : PAL
Color space                    : YUV
Chroma subsampling             : 4:2:0
Bit depth                      : 8 bits
Scan type                      : Interlaced
Scan order                     : Top Field First
Compression mode               : Lossy
Bits/(Pixel*Frame)             : 0.664
Time code of first frame       : 00:00:17:19
Time code source               : Group of pictures header
GOP, Open/Closed               : Open
Stream size                    : 967 MiB (94%)
Color primaries                : BT.601 PAL
Transfer characteristics       : BT.470 System B, BT.470 System G
Matrix coefficients            : BT.601
Audio
ID                             : 189 (0xBD)-128 (0x80)
Format                         : AC-3
Format/Info                    : Audio Coding 3
Mode extension                 : CM (complete main)
Format settings, Endianness    : Big
Muxing mode                    : DVD-Video
Duration                       : 19mn 38s
Bit rate mode                  : Constant
Bit rate                       : 256 Kbps
Channel(s)                     : 2 channels
Channel positions              : Front: L R
Sampling rate                  : 48.0 KHz
Compression mode               : Lossy
Delay relative to video        : -80ms
Stream size                    : 36.0 MiB (4%)
Menu

Рецензия, отзыв:

Подумал, что подобный киношедевр должен быть представлен на нашем портале. Писать много нет смысла, это надо смотреть. Фильм в основном немой, но те фразы, что есть, пусть и написанные, прям западют в душу, каждая реплика шикарна, а игра актёров заменяет собой тысячи слов.
Скриншоты:
Не жилим спасибо. Не забываем голосовать за трекер!!!


Показать сообщения:    

Текущее время: 16-Сен 11:18

Часовой пояс: UTC + 3


Вы не можете начинать темы
Вы не можете отвечать на сообщения
Вы не можете редактировать свои сообщения
Вы не можете удалять свои сообщения
Вы не можете голосовать в опросах
Вы не можете прикреплять файлы к сообщениям
Вы не можете скачивать файлы

!ВНИМАНИЕ!
Сайт не предоставляет электронные версии произведений, а занимается лишь коллекционированием и каталогизацией ссылок, присылаемых и публикуемых на форуме нашими читателями. Если вы являетесь правообладателем какого-либо представленного материала и не желаете, чтобы ссылка на него находилась в нашем каталоге, свяжитесь с нами, и мы незамедлительно удалим ее. Файлы для обмена на трекере предоставлены пользователями сайта, и администрация не несет ответственности за их содержание. Просьба не заливать файлы, защищенные авторскими правами, а также файлы нелегального содержания!