۩ ‼ Вы находитесь на Бесплатном торрент-трекере TORRNADA.com ۩ Зарегистрируйтесь для получения полного доступа ко всем функциям сайта ! ۩ После регистрации подпишитесь на нашу рассылку в своём профиле ۩
Auto Web Pinger

 

[Цитировать]

Psyfactor - Futurised
Жанр: PsyChill, Ambient, Downbeat
Год выпуска диска: 2010
Производитель диска: Ajana Records/AJACD012
Аудио кодек: FLAC
Тип рипа: tracks+.cue
Продолжительность: 77:39
Трэклист:
1.Discovering andromeda (5:38)
2.Flying dolphins (7:23)
3.Are we alone (6:12)
4.Futurised (6:27)
5.In space (6:00)
6.Above and beyond (7:45)
7.Cassiopeya (6:55)
8.Over the edge (6:53)
9.Back in time (5:52)
10.Purple sky (6:37)
11.Neptune waves (5:58)
12.Out of this world (5:28)

Log EAC

Exact Audio Copy V0.99 prebeta 5 from 4. May 2009
EAC extraction logfile from 3. June 2010, 7:18
Psyfactor / Futurised
Used drive : HL-DT-STDVDRAM GSA-H44L Adapter: 2 ID: 1
Read mode : Secure
Utilize accurate stream : Yes
Defeat audio cache : Yes
Make use of C2 pointers : No
Read offset correction : 667
Overread into Lead-In and Lead-Out : No
Fill up missing offset samples with silence : Yes
Delete leading and trailing silent blocks : No
Null samples used in CRC calculations : Yes
Used interface : Installed external ASPI interface
Gap handling : Appended to previous track
Used output format : User Defined Encoder
Selected bitrate : 128 kBit/s
Quality : High
Add ID3 tag : No
Command line compressor : C:\Program Files\Exact Audio Copy\Flac\flac.exe
Additional command line options : -V -8 -T "artist=%a" -T "title=%t" -T "album=%g" -T "date=%y" -T "tracknumber=%n" -T "genre=%m" %s
TOC of the extracted CD
Track | Start | Length | Start sector | End sector
---------------------------------------------------------
1 | 0:00.00 | 5:40.66 | 0 | 25565
2 | 5:40.66 | 7:25.57 | 25566 | 58997
3 | 13:06.48 | 6:14.34 | 58998 | 87081
4 | 19:21.07 | 6:29.64 | 87082 | 116320
5 | 25:50.71 | 6:02.00 | 116321 | 143470
6 | 31:52.71 | 7:47.34 | 143471 | 178529
7 | 39:40.30 | 7:05.37 | 178530 | 210441
8 | 46:45.67 | 6:55.13 | 210442 | 241579
9 | 53:41.05 | 5:54.48 | 241580 | 268177
10 | 59:35.53 | 6:39.71 | 268178 | 298173
11 | 66:15.49 | 6:00.74 | 298174 | 325247
12 | 72:16.48 | 5:28.00 | 325248 | 349847
Track 1
Filename Z:\media\Muusika\Upload\waffles.fm\Psyfactor - 2010 - Futurised [FLAC]\01 - Discovering Andromeda.wav
Pre-gap length 0:00:02.00
Peak level 100.0 %
Track quality 100.0 %
Test CRC 252CEBF5
Copy CRC 252CEBF5
Track not present in AccurateRip database
Copy OK
Track 2
Filename Z:\media\Muusika\Upload\waffles.fm\Psyfactor - 2010 - Futurised [FLAC]\02 - Flying Dolfins.wav
Pre-gap length 0:00:02.00
Peak level 100.0 %
Track quality 100.0 %
Test CRC 2B12B67F
Copy CRC 2B12B67F
Track not present in AccurateRip database
Copy OK
Track 3
Filename Z:\media\Muusika\Upload\waffles.fm\Psyfactor - 2010 - Futurised [FLAC]\03 - Are we alone.wav
Pre-gap length 0:00:02.00
Peak level 97.0 %
Track quality 100.0 %
Test CRC 6788C991
Copy CRC 6788C991
Track not present in AccurateRip database
Copy OK
Track 4
Filename Z:\media\Muusika\Upload\waffles.fm\Psyfactor - 2010 - Futurised [FLAC]\04 - Futurised.wav
Pre-gap length 0:00:02.00
Peak level 100.0 %
Track quality 99.9 %
Test CRC BDA9978A
Copy CRC BDA9978A
Track not present in AccurateRip database
Copy OK
Track 5
Filename Z:\media\Muusika\Upload\waffles.fm\Psyfactor - 2010 - Futurised [FLAC]\05 - In Space.wav
Pre-gap length 0:00:02.00
Peak level 97.0 %
Track quality 100.0 %
Test CRC 27EDA613
Copy CRC 27EDA613
Track not present in AccurateRip database
Copy OK
Track 6
Filename Z:\media\Muusika\Upload\waffles.fm\Psyfactor - 2010 - Futurised [FLAC]\06 - Above and beyond.wav
Pre-gap length 0:00:02.00
Peak level 96.9 %
Track quality 100.0 %
Test CRC 03CDF303
Copy CRC 03CDF303
Track not present in AccurateRip database
Copy OK
Track 7
Filename Z:\media\Muusika\Upload\waffles.fm\Psyfactor - 2010 - Futurised [FLAC]\07 - Cassiopeya.wav
Pre-gap length 0:00:02.00
Peak level 98.5 %
Track quality 100.0 %
Test CRC BCABD8D0
Copy CRC BCABD8D0
Track not present in AccurateRip database
Copy OK
Track 8
Filename Z:\media\Muusika\Upload\waffles.fm\Psyfactor - 2010 - Futurised [FLAC]\08 - Over the Edge.wav
Pre-gap length 0:00:02.00
Peak level 100.0 %
Track quality 100.0 %
Test CRC 2FC65451
Copy CRC 2FC65451
Track not present in AccurateRip database
Copy OK
Track 9
Filename Z:\media\Muusika\Upload\waffles.fm\Psyfactor - 2010 - Futurised [FLAC]\09 - Back in Time.wav
Pre-gap length 0:00:02.00
Peak level 97.2 %
Track quality 99.9 %
Test CRC AE10B046
Copy CRC AE10B046
Track not present in AccurateRip database
Copy OK
Track 10
Filename Z:\media\Muusika\Upload\waffles.fm\Psyfactor - 2010 - Futurised [FLAC]\10 - Purple Sky.wav
Pre-gap length 0:00:02.00
Peak level 96.6 %
Track quality 100.0 %
Test CRC FF6EB1B0
Copy CRC FF6EB1B0
Track not present in AccurateRip database
Copy OK
Track 11
Filename Z:\media\Muusika\Upload\waffles.fm\Psyfactor - 2010 - Futurised [FLAC]\11 - Neptune Waves.wav
Pre-gap length 0:00:02.00
Peak level 97.2 %
Track quality 100.0 %
Test CRC EE3127F5
Copy CRC EE3127F5
Track not present in AccurateRip database
Copy OK
Track 12
Filename Z:\media\Muusika\Upload\waffles.fm\Psyfactor - 2010 - Futurised [FLAC]\12 - Out of this world.wav
Pre-gap length 0:00:02.00
Peak level 97.2 %
Track quality 100.0 %
Test CRC E4D10B00
Copy CRC E4D10B00
Track not present in AccurateRip database
Copy OK
None of the tracks are present in the AccurateRip database
No errors occurred
End of status report

CUE

REM GENRE Psychill
REM DATE 2010
REM DISCID B512380C
REM COMMENT "ExactAudioCopy v0.99pb5"
PERFORMER "Psyfactor"
TITLE "Futurised"
FILE "01 - Discovering Andromeda.wav" WAVE
TRACK 01 AUDIO
TITLE "Discovering Andromeda"
PERFORMER "Psyfactor"
FLAGS DCP
INDEX 01 00:00:00
TRACK 02 AUDIO
TITLE "Flying Dolfins"
PERFORMER "Psyfactor"
FLAGS DCP
INDEX 00 05:38:66
FILE "02 - Flying Dolfins.wav" WAVE
INDEX 01 00:00:00
TRACK 03 AUDIO
TITLE "Are we alone"
PERFORMER "Psyfactor"
FLAGS DCP
INDEX 00 07:23:57
FILE "03 - Are we alone.wav" WAVE
INDEX 01 00:00:00
TRACK 04 AUDIO
TITLE "Futurised"
PERFORMER "Psyfactor"
FLAGS DCP
INDEX 00 06:12:34
FILE "04 - Futurised.wav" WAVE
INDEX 01 00:00:00
TRACK 05 AUDIO
TITLE "In Space"
PERFORMER "Psyfactor"
FLAGS DCP
INDEX 00 06:27:64
FILE "05 - In Space.wav" WAVE
INDEX 01 00:00:00
TRACK 06 AUDIO
TITLE "Above and beyond"
PERFORMER "Psyfactor"
FLAGS DCP
INDEX 00 06:00:00
FILE "06 - Above and beyond.wav" WAVE
INDEX 01 00:00:00
TRACK 07 AUDIO
TITLE "Cassiopeya"
PERFORMER "Psyfactor"
FLAGS DCP
INDEX 00 07:45:34
FILE "07 - Cassiopeya.wav" WAVE
INDEX 01 00:00:00
TRACK 08 AUDIO
TITLE "Over the Edge"
PERFORMER "Psyfactor"
FLAGS DCP
INDEX 00 07:03:37
FILE "08 - Over the Edge.wav" WAVE
INDEX 01 00:00:00
TRACK 09 AUDIO
TITLE "Back in Time"
PERFORMER "Psyfactor"
FLAGS DCP
INDEX 00 06:53:13
FILE "09 - Back in Time.wav" WAVE
INDEX 01 00:00:00
TRACK 10 AUDIO
TITLE "Purple Sky"
PERFORMER "Psyfactor"
FLAGS DCP
INDEX 00 05:52:48
FILE "10 - Purple Sky.wav" WAVE
INDEX 01 00:00:00
TRACK 11 AUDIO
TITLE "Neptune Waves"
PERFORMER "Psyfactor"
FLAGS DCP
INDEX 00 06:37:71
FILE "11 - Neptune Waves.wav" WAVE
INDEX 01 00:00:00
TRACK 12 AUDIO
TITLE "Out of this world"
PERFORMER "Psyfactor"
FLAGS DCP
INDEX 00 05:58:74
FILE "12 - Out of this world.wav" WAVE
INDEX 01 00:00:00
Источник: what.cd


Показать сообщения:    

Текущее время: 27-Май 16:30

Часовой пояс: UTC + 3


Вы не можете начинать темы
Вы не можете отвечать на сообщения
Вы не можете редактировать свои сообщения
Вы не можете удалять свои сообщения
Вы не можете голосовать в опросах
Вы не можете прикреплять файлы к сообщениям
Вы не можете скачивать файлы

!ВНИМАНИЕ!
Сайт не предоставляет электронные версии произведений, а занимается лишь коллекционированием и каталогизацией ссылок, присылаемых и публикуемых на форуме нашими читателями. Если вы являетесь правообладателем какого-либо представленного материала и не желаете, чтобы ссылка на него находилась в нашем каталоге, свяжитесь с нами, и мы незамедлительно удалим ее. Файлы для обмена на трекере предоставлены пользователями сайта, и администрация не несет ответственности за их содержание. Просьба не заливать файлы, защищенные авторскими правами, а также файлы нелегального содержания!