۩ ‼ Вы находитесь на Бесплатном торрент-трекере TORRNADA.com ۩ Зарегистрируйтесь для получения полного доступа ко всем функциям сайта ! ۩ После регистрации подпишитесь на нашу рассылку в своём профиле ۩
Auto Web Pinger

 

[Цитировать]

Сергей Безруков. Исповедь хулигана (2013) SATRip - Телекомпания: Россия, ООО "Студия Ивана Усачёва"
Жанр: Документальный
Режиссер: Максим Володин
В ролях: Сергей Безруков
Описание:
Сергей Безруков, отмечает юбилей - 18 октября ему исполняется сорок лет. Сергей Безруков занимает первое место среди молодых российских актеров по количеству сыгранных ролей в кино и телесериалах – их около 40! Вряд ли в России еще найдется артист его возраста, кому удается так часто появляться на экране и иметь столько регалий. При этом он пишет картины, руководит театром, занимается общественной работой… Как простому московскому парню удалось достичь таких успехов? Сергей часто бывал на работе у отца, артиста Театра Сатиры, и рано принял решение пойти по его стопам. После окончания средней школы он без проблем поступил в Школу-студию МХАТ и вскоре стал любимым студентом Олега Табакова. Но счастлив ли актер? Как на самом деле складывается семейная жизнь четы Безруковых? Об этом в фильме рассказывают сами Сергея и Ирина - без всяких домыслов, сплетен и легенд. Откуда Сергей Безруков черпает силы и вдохновение? О чем мечтает знаменитый актёр? И почему согласился возглавить театр?
Продолжительность: 00:38:07
Качество видео: SATRip
Видео: Xvid, 704x416, ~1499 kbps
Аудио: AC3, 2 ch, 192 kbps
Семпл: Скачать

Mediainfo:

General
        Format : AVI
      Format/Info : Audio Video Interleave
      File size : 464 MiB
      Duration : 38mn 7s
      Overall bit rate : 1 700 Kbps
      Writing application : VirtualDubMod 1.5.10.3 | www.virtualdub-fr.org || (build 2550/release)
      Writing library : VirtualDubMod build 2550/release
   Video #0
      ID : 0
      Format : MPEG-4 Visual
      Format profile : Advanced Simple@L5
      Format settings, BVOP : 2
      Format settings, QPel : No
      Format settings, GMC : No warppoints
      Format settings, Matrix : Default (MPEG)
      Codec ID : XVID
      Codec ID/Hint : XviD
      Duration : 38mn 7s
      Bit rate : 1 499 Kbps
      Width : 704 pixels
      Height : 416 pixels
      Display aspect ratio : 1.692
      Frame rate : 25.000 fps
      Color space : YUV
      Chroma subsampling : 4:2:0
      Bit depth : 8 bits
      Scan type : Progressive
      Compression mode : Lossy
      Bits/(Pixel*Frame) : 0.205
      Stream size : 409 MiB (88%)
      Writing library : XviD 1.2.1 (UTC 2008-12-04)
   Audio #1
      ID : 1
      Format : AC-3
      Format/Info : Audio Coding 3
      Mode extension : CM (complete main)
      Format settings, Endianness : Big
      Codec ID : 2000
      Duration : 38mn 7s
      Bit rate mode : Constant
      Bit rate : 192 Kbps
      Channel(s) : 2 channels
      Channel positions : Front: L R
      Sampling rate : 48.0 KHz
      Bit depth : 16 bits
      Compression mode : Lossy
      Stream size : 52.4 MiB (11%)
      Alignment : Split accross interleaves
      Interleave, duration : 40 ms (1.00 video frame)
      Interleave, preload duration : 500 ms
Скриншоты:
Не жилим спасибо. Не забываем голосовать за трекер!!!


Показать сообщения:    

Текущее время: 27-Май 16:11

Часовой пояс: UTC + 3


Вы не можете начинать темы
Вы не можете отвечать на сообщения
Вы не можете редактировать свои сообщения
Вы не можете удалять свои сообщения
Вы не можете голосовать в опросах
Вы не можете прикреплять файлы к сообщениям
Вы не можете скачивать файлы

!ВНИМАНИЕ!
Сайт не предоставляет электронные версии произведений, а занимается лишь коллекционированием и каталогизацией ссылок, присылаемых и публикуемых на форуме нашими читателями. Если вы являетесь правообладателем какого-либо представленного материала и не желаете, чтобы ссылка на него находилась в нашем каталоге, свяжитесь с нами, и мы незамедлительно удалим ее. Файлы для обмена на трекере предоставлены пользователями сайта, и администрация не несет ответственности за их содержание. Просьба не заливать файлы, защищенные авторскими правами, а также файлы нелегального содержания!