۩ ‼ Вы находитесь на Бесплатном торрент-трекере TORRNADA.com ۩ Зарегистрируйтесь для получения полного доступа ко всем функциям сайта ! ۩ После регистрации подпишитесь на нашу рассылку в своём профиле ۩
Auto Web Pinger

 

[Цитировать]

Gyrowetz - Symphonies (Matthias Bamert & London Mozart Players Orchestra) (2000) - Дата: February 22, 2000
Жанр: Classical, Classical Period, Orchestral,Romantic Period, Symphony
Лейбл: Chandos Records
Номер по каталогу: 9791
Продолжительность: 01:04:11
Кодек: FLAC
Битрейт: Lossless
Тип рипа: image +.cue
Composer: Adalbert Gyrowetz (1763-1850)
Conductor: Matthias Bamert
Ensemble: London Mozart Players Orchestra

Треклист:
Symphony in E flat major, Op.6 No.2
01. Allegro (06:10)
02. Andante (04:42)
03. Minuetto: Allegretto (03:44)
04. Finale: Presto (03:23)
Symphony in F major, Op.6 No.3
05. Allegro (07:39)
06. Andante (05:28)
07. Minuetto: Allegretto (04:11)
08. Finale (Rondo): Allegro vivace (03:05)
Symphony in D major, Op.12 No.1
09. Adagio-Allegro (08:26)
10. Andante poco adagio (06:34)
11. Minuetto: Allegro (06:07)
12. Presto (04:42)

ЕАС - log:

Exact Audio Copy V1.0 beta 3 from 29. August 2011
EAC extraction logfile from 2. November 2012, 22:32
Matthias Bamert / Gyrowetz - Symphonies - Bamert
Used drive  : TSSTcorpCDDVDW TS-L633M   Adapter: 1  ID: 0
Read mode               : Secure
Utilize accurate stream : Yes
Defeat audio cache      : Yes
Make use of C2 pointers : No
Read offset correction                      : 6
Overread into Lead-In and Lead-Out          : No
Fill up missing offset samples with silence : Yes
Delete leading and trailing silent blocks   : No
Null samples used in CRC calculations       : Yes
Used interface                              : Native Win32 interface for Win NT & 2000
Used output format              : User Defined Encoder
Selected bitrate                : 320 kBit/s
Quality                         : High
Add ID3 tag                     : No
Command line compressor         : C:\Program Files\Exact Audio Copy\Flac\flac.exe
Additional command line options : -8 -V -T "TITLE=%title%" -T "ARTIST=%artist%" -T "ALBUMARTIST=%albumartist%" -T "ALBUM=%albumtitle%" -T "DATE=%year%" -T "TRACKNUMBER=%tracknr%" -T "TRACKTOTAL=%numtracks%" -T "GENRE=%genre%" -T "COMMENT=%comment%" -T "PERFORMER=%albuminterpret%" -T "COMPOSER=%composer%" %source% -o %dest%
TOC of the extracted CD
     Track |   Start  |  Length  | Start sector | End sector
    ---------------------------------------------------------
        1  |  0:00.00 |  6:10.25 |         0    |    27774
        2  |  6:10.25 |  4:42.00 |     27775    |    48924
        3  | 10:52.25 |  3:44.00 |     48925    |    65724
        4  | 14:36.25 |  3:23.00 |     65725    |    80949
        5  | 17:59.25 |  7:39.37 |     80950    |   115411
        6  | 25:38.62 |  5:27.38 |    115412    |   139974
        7  | 31:06.25 |  4:11.00 |    139975    |   158799
        8  | 35:17.25 |  3:05.00 |    158800    |   172674
        9  | 38:22.25 |  8:26.37 |    172675    |   210661
       10  | 46:48.62 |  6:33.38 |    210662    |   240174
       11  | 53:22.25 |  6:07.00 |    240175    |   267699
       12  | 59:29.25 |  4:42.25 |    267700    |   288874
Range status and errors
Selected range
     Filename C:\Users\JS\Desktop\Gyrowetz - Symphonies - Bamert\Gyrowetz - Symphonies - Bamert.wav
     Peak level 97.7 %
     Extraction speed 0.3 X
     Range quality 100.0 %
     Test CRC 6842F417
     Copy CRC 6842F417
     Copy OK
No errors occurred
AccurateRip summary
Track  1  accurately ripped (confidence 2)  [5DD72B08]  (AR v2)
Track  2  accurately ripped (confidence 2)  [8AE4E180]  (AR v2)
Track  3  accurately ripped (confidence 2)  [8BF27ED5]  (AR v2)
Track  4  accurately ripped (confidence 2)  [60A89FD1]  (AR v2)
Track  5  accurately ripped (confidence 2)  [E803BC14]  (AR v2)
Track  6  accurately ripped (confidence 2)  [BFF528A8]  (AR v2)
Track  7  accurately ripped (confidence 2)  [DB0A79B1]  (AR v2)
Track  8  accurately ripped (confidence 2)  [DFBC946F]  (AR v2)
Track  9  accurately ripped (confidence 2)  [737B574B]  (AR v2)
Track 10  accurately ripped (confidence 2)  [5EDF834A]  (AR v2)
Track 11  accurately ripped (confidence 2)  [9600971E]  (AR v2)
Track 12  accurately ripped (confidence 2)  [FDE2E012]  (AR v2)
All tracks accurately ripped
End of status report

auCDtect - log:

-----------------------
DON'T MODIFY THIS FILE
-----------------------
PERFORMER: auCDtect Task Manager, ver. 1.5.1RC6 build 1.5.1.7
Copyright (c) 2008-2010 y-soft. All rights reserved
http://y-soft.org
ANALYZER: auCDtect: CD records authenticity detector, version 0.8.2
Copyright (c) 2004 Oleg Berngardt. All rights reserved.
Copyright (c) 2004 Alexander Djourik. All rights reserved.
FILE: Gyrowetz - Symphonies - Bamert.flac
  Size: 295709181 Hash: 4D04B827CDD08C997E343D2D796519DA Accuracy: -m0
  Conclusion: CDDA 42%
  Signature: 9A2A14D87FC6DB237B005DD0C4F6462E7AB25256

cue sheet (*.cue):

REM GENRE Classical
REM DATE 2003
REM DISCID 990F0B0C
REM COMMENT "ExactAudioCopy v1.0b3"
PERFORMER "Matthias Bamert"
TITLE "Gyrowetz - Symphonies - Bamert"
FILE "Gyrowetz - Symphonies - Bamert.flac" WAVE
  TRACK 01 AUDIO
    TITLE "Symphony in E flat major, Op.6 No.2 - Allegro"
    PERFORMER "Matthias Bamert"
    INDEX 01 00:00:00
  TRACK 02 AUDIO
    TITLE "Symphony in E flat major, Op.6 No.2 - Andante"
    PERFORMER "Matthias Bamert"
    INDEX 00 06:05:50
    INDEX 01 06:10:25
  TRACK 03 AUDIO
    TITLE "Symphony in E flat major, Op.6 No.2 - Minuetto: Allegretto"
    PERFORMER "Matthias Bamert"
    INDEX 00 10:47:50
    INDEX 01 10:52:25
  TRACK 04 AUDIO
    TITLE "Symphony in E flat major, Op.6 No.2 - Finale: Presto"
    PERFORMER "Matthias Bamert"
    INDEX 00 14:32:50
    INDEX 01 14:36:25
  TRACK 05 AUDIO
    TITLE "Symphony in F major, Op.6 No.3 - Allegro"
    PERFORMER "Matthias Bamert"
    INDEX 00 17:52:50
    INDEX 01 17:59:25
  TRACK 06 AUDIO
    TITLE "Symphony in F major, Op.6 No.3 - Andante"
    PERFORMER "Matthias Bamert"
    INDEX 00 25:36:50
    INDEX 01 25:38:62
  TRACK 07 AUDIO
    TITLE "Symphony in F major, Op.6 No.3 - Minuetto: Allegretto"
    PERFORMER "Matthias Bamert"
    INDEX 00 31:01:50
    INDEX 01 31:06:25
  TRACK 08 AUDIO
    TITLE "Symphony in F major, Op.6 No.3 - Finale (Rondo): Allegro vivace"
    PERFORMER "Matthias Bamert"
    INDEX 00 35:14:50
    INDEX 01 35:17:25
  TRACK 09 AUDIO
    TITLE "Symphony in D major, Op.12 No.1 - Adagio-Allegro"
    PERFORMER "Matthias Bamert"
    INDEX 00 38:13:50
    INDEX 01 38:22:25
  TRACK 10 AUDIO
    TITLE "Symphony in D major, Op.12 No.1 - Andante poco adagio"
    PERFORMER "Matthias Bamert"
    INDEX 00 46:45:50
    INDEX 01 46:48:62
  TRACK 11 AUDIO
    TITLE "Symphony in D major, Op.12 No.1 - Minuetto: Allegro"
    PERFORMER "Matthias Bamert"
    INDEX 00 53:19:50
    INDEX 01 53:22:25
  TRACK 12 AUDIO
    TITLE "Symphony in D major, Op.12 No.1 - Presto"
    PERFORMER "Matthias Bamert"
    INDEX 00 59:26:50
    INDEX 01 59:29:25
https://youtu.be/_OZnx9oGd4YНе жилим спасибо. Не забываем голосовать за трекер!!!

Топик был перенесен из форума Класика/Инструментальная в форум CD (Компакт диски) Lossless - МУЗЫКА БЕЗ ПОТЕРИ КАЧЕСТВА
Magnat


Показать сообщения:    

Текущее время: 27-Май 16:10

Часовой пояс: UTC + 3


Вы не можете начинать темы
Вы не можете отвечать на сообщения
Вы не можете редактировать свои сообщения
Вы не можете удалять свои сообщения
Вы не можете голосовать в опросах
Вы не можете прикреплять файлы к сообщениям
Вы не можете скачивать файлы

!ВНИМАНИЕ!
Сайт не предоставляет электронные версии произведений, а занимается лишь коллекционированием и каталогизацией ссылок, присылаемых и публикуемых на форуме нашими читателями. Если вы являетесь правообладателем какого-либо представленного материала и не желаете, чтобы ссылка на него находилась в нашем каталоге, свяжитесь с нами, и мы незамедлительно удалим ее. Файлы для обмена на трекере предоставлены пользователями сайта, и администрация не несет ответственности за их содержание. Просьба не заливать файлы, защищенные авторскими правами, а также файлы нелегального содержания!