۩ ‼ Вы находитесь на Бесплатном торрент-трекере TORRNADA.com ۩ Зарегистрируйтесь для получения полного доступа ко всем функциям сайта ! ۩ После регистрации подпишитесь на нашу рассылку в своём профиле ۩
Auto Web Pinger

 

[Цитировать]

Название: Солёное поле боя
Оригинальное название: Salting the Battlefield
Год выпуска: 2014
Страна: Великобритания
Жанр: драма, криминал, детектив
Продолжительность: 01:36:44
Перевод: любительский одноголосый
Режиссёр: Дэвид Хэа
В ролях: Рэйф Файнс, Анна Бёгер, Шазад Латиф, Фелисити Джонс, Джеймс МакАрдл, Билл Найи, Саския Ривз, Дэниэл Райан, Лиэнн Бест, Джуди Дэвис, Хелена Бонем Картер, Юэн Бремнер, Оливия Уильямс, Кейт Бёрдетт, Руперт Грейвз, Георг Ленц, Пип Картер, Сан Шелла, Марк Уингетт, Ричард Лоуренс, Малкольм Синклер, Валерия Веро, Ласко Аткинс, Джон Дагган, Торстон Мандерлей
Описание: В центре сюжета детективной драмы два спецагента Джонни Уоррикер и Марго Тирел, которые находятся в Европе в бегах. По их следу идёт МИ-6. Они понимают, что так не может продолжаться всю жизнь и осознают, что их вот-вот могут обнаружить. Единственный способ разрешить эту дилемму — это вернуться в Великобританию и встретиться с премьер-министром... Третий фильм (Страница 8, Теркс и Кайкос) трилогии о Джонни Уоррикере - офицере разведки MI5.

Качество: BDRip 720p Сравнение с исходником
Формат: MKV
Видео: MPEG-4 AVC, 3912 Кбит/с, 1280x536, 23,976 кадра/с
Аудио 1: русский, AC3, 448 kbps, 2 ch, 48 kHz [любительский одноголосый, Семён Ващенко]
Аудио 2: английский, AC3, 448 kbps, 6 ch, 48 kHz [оригинал]

"Инфо-файл"

Общее
Уникальный идентификатор : 187931252639453937568997443784499357145 (0x8D623E2139414E9E90803AD7950165D9)
Полное имя : D:VideoСолёное поле боя.2014.BDRip.720p.mkv
Формат : Matroska
Версия формата : Version 4 / Version 2
Размер файла : 3,32 Гбайт
Продолжительность : 1 ч. 36 м.
Общий поток : 4906 Кбит/сек
Название фильма : BDRip -- STarankov
Дата кодирования : UTC 2015-07-26 05:17:59
Программа кодирования : mkvmerge v8.2.0 ('World of Adventure') 64bit
Библиотека кодирования : libebml v1.3.1 + libmatroska v1.4.2
DURATION : 01:36:44.864000000
NUMBER_OF_FRAMES : 181402
NUMBER_OF_BYTES : 325072384
_STATISTICS_WRITING_APP : mkvmerge v8.2.0 ('World of Adventure') 64bit
_STATISTICS_WRITING_DATE_UTC : 2015-07-26 05:17:59
_STATISTICS_TAGS : BPS DURATION NUMBER_OF_FRAMES NUMBER_OF_BYTES
Видео
Идентификатор : 1
Формат : AVC
Формат/Информация : Advanced Video Codec
Профиль формата : High@L4.1
Параметр CABAC формата : Да
Параметр ReFrames формата : 9 кадров
Идентификатор кодека : V_MPEG4/ISO/AVC
Продолжительность : 1 ч. 36 м.
Битрейт : 3912 Кбит/сек
Ширина : 1280 пикселей
Высота : 536 пикселей
Соотношение сторон : 2,40:1
Режим частоты кадров : Постоянный
Частота кадров : 23,976 кадра/сек
Цветовое пространство : YUV
Субдискретизация насыщенности : 4:2:0
Битовая глубина : 8 бит
Тип развёртки : Прогрессивная
Бит/(Пиксели*Кадры) : 0.238
Размер потока : 2,64 Гбайт (80%)
Библиотека кодирования : x264 core 146 r2538 121396c
Настройки программы : cabac=1 / ref=9 / deblock=1:-1:-1 / analyse=0x3:0x113 / me=umh / subme=10 / psy=1 / psy_rd=1.00:0.15 / mixed_ref=1 / me_range=32 / chroma_me=1 / trellis=2 / 8x8dct=1 / cqm=0 / deadzone=21,11 / fast_pskip=1 / chroma_qp_offset=-3 / threads=6 / lookahead_threads=1 / sliced_threads=0 / nr=0 / decimate=1 / interlaced=0 / bluray_compat=0 / constrained_intra=0 / bframes=9 / b_pyramid=2 / b_adapt=2 / b_bias=0 / direct=1 / weightb=1 / open_gop=0 / weightp=2 / keyint=230 / keyint_min=23 / scenecut=40 / intra_refresh=0 / rc_lookahead=40 / rc=crf / mbtree=0 / crf=18.0 / qcomp=0.60 / qpmin=0 / qpmax=69 / qpstep=4 / vbv_maxrate=40000 / vbv_bufsize=50000 / crf_max=0.0 / nal_hrd=none / filler=0 / ip_ratio=1.40 / pb_ratio=1.30 / aq=1:1.00
Язык : English
Default : Да
Forced : Нет
DURATION : 01:36:44.049000000
NUMBER_OF_FRAMES : 139158
NUMBER_OF_BYTES : 2908272070
_STATISTICS_WRITING_APP : mkvmerge v8.2.0 ('World of Adventure') 64bit
_STATISTICS_WRITING_DATE_UTC : 2015-07-26 05:17:59
_STATISTICS_TAGS : BPS DURATION NUMBER_OF_FRAMES NUMBER_OF_BYTES
Аудио #1
Идентификатор : 2
Формат : AC-3
Формат/Информация : Audio Coding 3
Расширение режима : CM (complete main)
Параметр Endianness формата : Big
Идентификатор кодека : A_AC3
Продолжительность : 1 ч. 36 м.
Вид битрейта : Постоянный
Битрейт : 448 Кбит/сек
Каналы : 2 канала
Расположение каналов : Front: L R
Частота : 48,0 КГц
Метод сжатия : С потерями
Размер потока : 310 Мбайт (9%)
Заголовок : VO (любительский одноголосый, Семён Ващенко)
Язык : Russian
Default : Да
Forced : Нет
Аудио #2
Идентификатор : 3
Формат : AC-3
Формат/Информация : Audio Coding 3
Расширение режима : CM (complete main)
Параметр Endianness формата : Big
Идентификатор кодека : A_AC3
Продолжительность : 1 ч. 36 м.
Вид битрейта : Постоянный
Битрейт : 448 Кбит/сек
Каналы : 6 каналов
Расположение каналов : Front: L C R, Side: L R, LFE
Частота : 48,0 КГц
Метод сжатия : С потерями
Размер потока : 310 Мбайт (9%)
Заголовок : Original
Язык : English
Default : Нет
Forced : Нет

"Скриншоты"

Не жилим спасибо. Не забываем голосовать за трекер!!!


Показать сообщения:    

Текущее время: 27-Май 10:10

Часовой пояс: UTC + 3


Вы не можете начинать темы
Вы не можете отвечать на сообщения
Вы не можете редактировать свои сообщения
Вы не можете удалять свои сообщения
Вы не можете голосовать в опросах
Вы не можете прикреплять файлы к сообщениям
Вы не можете скачивать файлы

!ВНИМАНИЕ!
Сайт не предоставляет электронные версии произведений, а занимается лишь коллекционированием и каталогизацией ссылок, присылаемых и публикуемых на форуме нашими читателями. Если вы являетесь правообладателем какого-либо представленного материала и не желаете, чтобы ссылка на него находилась в нашем каталоге, свяжитесь с нами, и мы незамедлительно удалим ее. Файлы для обмена на трекере предоставлены пользователями сайта, и администрация не несет ответственности за их содержание. Просьба не заливать файлы, защищенные авторскими правами, а также файлы нелегального содержания!