۩ ‼ Вы находитесь на Бесплатном торрент-трекере TORRNADA.com ۩ Зарегистрируйтесь для получения полного доступа ко всем функциям сайта ! ۩ После регистрации подпишитесь на нашу рассылку в своём профиле ۩
Auto Web Pinger

 

[Цитировать]

Марсель Фатхутдинов | Коллекция видеокурсов по видеообработке от команды Video Smile (2014) PCRec [H.264]- Автор (режиссер): Марсель Фатхутдинов
Жанр: Видеомонтаж, видеообработка.
Описание:
Представляю вашему вниманию коллекцию видеокурсов по видеомонтажу и ведеообработке от команды Video Smile
в которую вошли следующие видеокурсы:
Цветокоррекция и грейдинг в After Effects
Final Cut Pro X
Секреты создания эффектных видеороликов
Vegas Pro: C нуля
ZBrush: Начало
Азы мультипликациии

Ко всем видеокурсам добавлено очень удобное навигационное меню для более удобного просмотра.
Приятного изучения!

Подробнее

Цветокоррекция и грейдинг в After Effects
Данный курс, состоящий из 10 познавательных видеоуроков, научит вас правильно работать с цветом в программе After Effects. Вы узнаете как, используя стандартные эффекты, улучшить внешний вид ваших видео и сделать картинку поистине «Голливудской».
Final Cut Pro X
7 замечательных уроков по видеомонтажу в программе Final Cut Pro X!
Секреты создания эффектных видеороликов
Хотите научиться создавать эффектные видеоролики уже сегодня? Скачайте себе этот курс из 10 видеоуроков!
Vegas Pro: C нуля
Желаете обучиться работать в программе Vegas Pro? Тогда этот курс для вас! 8 видеоуроков!
ZBrush: Начало
Хотите научиться создавать 3D скульптуры? Тогда этот курс из 10 видеоуроков для вас!
Азы мультипликациии
Хотите научиться создавать собственные мультфильмы?
Тогда этот курс из 7 видеоуроков для вас!
Продолжительность: 14:23:00
Качество видео: PCRec
Видео: AVC/H.264, 1280x800, 1920x1080, ~1200 Kbps
Аудио: AAC, 2 ch, 156 Kbps, VBR

Mediainfo:

General
Complete name                  : I:\Видео\Courses\az_mult\AutoPlay\Docs\02.mp4
Format                         : MPEG-4
Format profile                 : Base Media
Codec ID                       : isom
File size                      : 441 MiB
Duration                       : 45mn 1s
Overall bit rate mode          : Variable
Overall bit rate               : 1 369 Kbps
Encoded date                   : UTC 2013-10-04 08:13:51
Tagged date                    : UTC 2013-10-04 08:13:51
Writing application            : FormatFactory : www.pcfreetime.com
Video
ID                             : 1
Format                         : AVC
Format/Info                    : Advanced Video Codec
Format profile                 : High@L3.0
Format settings, CABAC         : No
Format settings, ReFrames      : 1 frame
Codec ID                       : avc1
Codec ID/Info                  : Advanced Video Coding
Duration                       : 45mn 1s
Bit rate                       : 1 200 Kbps
Maximum bit rate               : 12.7 Mbps
Width                          : 1 280 pixels
Height                         : 800 pixels
Display aspect ratio           : 1.600
Frame rate mode                : Constant
Frame rate                     : 30.000 fps
Color space                    : YUV
Chroma subsampling             : 4:2:0
Bit depth                      : 8 bits
Scan type                      : Progressive
Bits/(Pixel*Frame)             : 0.039
Stream size                    : 403 MiB (91%)
Writing library                : x264 core 116 r2019 9cc407d
Encoding settings              : cabac=0 / ref=1 / deblock=1:0:0 / analyse=0x3:0x113 / me=hex / subme=7 / psy=1 / psy_rd=1.00:0.00 / mixed_ref=0 / me_range=16 / chroma_me=1 / trellis=1 / 8x8dct=1 / cqm=0 / deadzone=21,11 / fast_pskip=1 / chroma_qp_offset=-2 / threads=12 / sliced_threads=0 / nr=0 / decimate=1 / interlaced=0 / bluray_compat=0 / constrained_intra=0 / bframes=0 / weightp=2 / keyint=250 / keyint_min=25 / scenecut=40 / intra_refresh=0 / rc_lookahead=40 / rc=abr / mbtree=1 / bitrate=1200 / ratetol=1.0 / qcomp=0.60 / qpmin=0 / qpmax=69 / qpstep=4 / ip_ratio=1.40 / aq=1:1.00
Encoded date                   : UTC 2013-10-04 08:13:51
Tagged date                    : UTC 2013-10-04 08:13:59
Audio
ID                             : 2
Format                         : AAC
Format/Info                    : Advanced Audio Codec
Format profile                 : LC
Codec ID                       : 40
Duration                       : 45mn 1s
Bit rate mode                  : Variable
Bit rate                       : 116 Kbps
Maximum bit rate               : 156 Kbps
Channel(s)                     : 2 channels
Channel positions              : Front: L R
Sampling rate                  : 44.1 KHz
Compression mode               : Lossy
Stream size                    : 37.4 MiB (8%)
Encoded date                   : UTC 2013-10-04 08:13:57
Tagged date                    : UTC 2013-10-04 08:13:59
Скриншоты:

Дополнительные скриншоты

Не жилим спасибо. Не забываем голосовать за трекер!!!


Показать сообщения:    

Текущее время: 25-Май 10:45

Часовой пояс: UTC + 3


Вы не можете начинать темы
Вы не можете отвечать на сообщения
Вы не можете редактировать свои сообщения
Вы не можете удалять свои сообщения
Вы не можете голосовать в опросах
Вы не можете прикреплять файлы к сообщениям
Вы не можете скачивать файлы

!ВНИМАНИЕ!
Сайт не предоставляет электронные версии произведений, а занимается лишь коллекционированием и каталогизацией ссылок, присылаемых и публикуемых на форуме нашими читателями. Если вы являетесь правообладателем какого-либо представленного материала и не желаете, чтобы ссылка на него находилась в нашем каталоге, свяжитесь с нами, и мы незамедлительно удалим ее. Файлы для обмена на трекере предоставлены пользователями сайта, и администрация не несет ответственности за их содержание. Просьба не заливать файлы, защищенные авторскими правами, а также файлы нелегального содержания!