۩ ‼ Вы находитесь на Бесплатном торрент-трекере TORRNADA.com ۩ Зарегистрируйтесь для получения полного доступа ко всем функциям сайта ! ۩ После регистрации подпишитесь на нашу рассылку в своём профиле ۩
Auto Web Pinger

 

[Цитировать]

Близнецы / Twins (1988) HDTV [MPEG-2/1080i]
«Only their mother can tell them apart»
- Производство: США / кинокомпания Universal Pictures
Жанр: Комедия, Криминал
Режиссер: Айван Райтман /Ivan Reitman/
Актеры: Арнольд Шварценеггер, Дэнни ДеВито, Келли Престон, Хлоя Уэбб, Бонни Бартлетт, Трей Уилсон, Маршалл Белл, Дэвид Карузо, Хью О’Брайен, Нехемия Персофф
Описание:
Неожиданный оборот принимает генетический эксперимент, во время которого новорожденных близнецов, которые, кстати, совершенно непохожих друг на друга, разлучают на долгие годы. Но несчастные братья наконец встречаются…
Джулиус, образованный, но совершенно не знающий жизни гигант с добрым сердцем и Винсент, коротышка с неистребимой жаждой денег и женщин. В компании подружек и преследующего их наемного убийцы братья отправляются в путешествие по стране на поиски своей матери — но в конце концов находят гораздо большее. Только мать может сказать им правду.

Возраст: 6+ (зрителям, достигшим 6 лет. )
Рейтинг MPAA: R (рекомендуется присутствие родителей)

Продолжительность: 01:42:42
Качество видео: HDTV 1080i
Перевод: Многоголосый закадровый, двуголосый закадровый, одноголосый закадровый
Субтитры: нет
Видео: MPEG-2, 1920x1080, 29,97 fps, 13,5 Mbps
Аудио 1: Русский AC3 / 2.0 / 48Khz / 384 kbps - AVO Алексей Михалев
Аудио 2: Русский AC3 / 2.0 / 48Khz / 192 kbps - AVO Андрей Гаврилов
Аудио 3: Русский AC3 / 2.0 / 48Khz / 192 kbps - AVO "Петербуржец"
Аудио 4: Русский AC3 / 2.0 / 48Khz / 192 kbps - MVO (НТВ)
Аудио 5: Русский AC3 / 2.0 / 48Khz / 384 kbps - MVO (ОРТ)
Аудио 6: Русский AC3 / 2.0 / 48Khz / 192 kbps - MVO (СТС)
Аудио 7: Русский AC3 / 2.0 / 48Khz / 192 kbps - MVO (Премьер Видео Фильм)
Аудио 8: Русский AC3 / 5.0 / 48Khz / 384 kbps - DVO
Аудио 9: Английский AC3 / 2.0 / 48Khz / 384 kbps - Оригинальный

Mediainfo:

Общее
Идентификатор                            : 1 (0x1)
Полное имя                               : E:\Video\Twins.ts
Формат                                   : MPEG-TS
Размер файла                             : 12,6 Гбайт
Продолжительность                        : 1 ч. 46 м.
Режим общего битрейта                    : Переменный
Общий поток                              : 16,9 Мбит/сек
Максимальный общий битрейт               : 35,5 Мбит/сек
Видео
Идентификатор                            : 4113 (0x1011)
Идентификатор меню                       : 1 (0x1)
Формат                                   : MPEG Video
Версия формата                           : Version 2
Профиль формата                          : Main@High
Параметр BVOP формата                    : Да
Параметр матрицы формата                 : Выборочная
Идентификатор кодека                     : 2
Продолжительность                        : 1 ч. 46 м.
Вид битрейта                             : Переменный
Битрейт                                  : 13,5 Мбит/сек
Максимальный битрейт                     : 20,0 Мбит/сек
Ширина                                   : 1920 пикселей
Высота                                   : 1080 пикселей
Соотношение сторон                       : 16:9
Частота кадров                           : 29,970 кадров/сек
Стандарт вещания                         : Component
Цветовое пространство                    : YUV
Субдискретизация насыщенности            : 4:2:0
Битовая глубина                          : 8 бит
Метод сжатия                             : С потерями
Бит/(Пиксели*Кадры)                      : 0.217
Размер потока                            : 10,0 Гбайт (80%)
Основные цвета                           : BT.709
Характеристики трансфера                 : BT.709
Коэффициенты матрицы                     : BT.709
Аудио #1
Идентификатор                            : 4352 (0x1100)
Идентификатор меню                       : 1 (0x1)
Формат                                   : AC-3
Формат/Информация                        : Audio Coding 3
Расширение режима                        : CM (complete main)
Параметр Endianness формата              : Big
Идентификатор кодека                     : 129
Продолжительность                        : 1 ч. 46 м.
Вид битрейта                             : Постоянный
Битрейт                                  : 384 Кбит/сек
Каналы                                   : 2 канала
Расположение каналов                     : Front: L R
Частота                                  : 48,0 КГц
Битовая глубина                          : 16 бит
Метод сжатия                             : С потерями
Размер потока                            : 293 Мбайт (2%)
Язык                                     : Russian
Аудио #2
Идентификатор                            : 4353 (0x1101)
Идентификатор меню                       : 1 (0x1)
Формат                                   : AC-3
Формат/Информация                        : Audio Coding 3
Расширение режима                        : CM (complete main)
Параметр Endianness формата              : Big
Идентификатор кодека                     : 129
Продолжительность                        : 1 ч. 46 м.
Вид битрейта                             : Постоянный
Битрейт                                  : 192 Кбит/сек
Каналы                                   : 2 канала
Расположение каналов                     : Front: L R
Частота                                  : 48,0 КГц
Битовая глубина                          : 16 бит
Метод сжатия                             : С потерями
Размер потока                            : 147 Мбайт (1%)
Язык                                     : Russian
Аудио #3
Идентификатор                            : 4354 (0x1102)
Идентификатор меню                       : 1 (0x1)
Формат                                   : AC-3
Формат/Информация                        : Audio Coding 3
Расширение режима                        : CM (complete main)
Параметр Endianness формата              : Big
Идентификатор кодека                     : 129
Продолжительность                        : 1 ч. 46 м.
Вид битрейта                             : Постоянный
Битрейт                                  : 192 Кбит/сек
Каналы                                   : 2 канала
Расположение каналов                     : Front: L R
Частота                                  : 48,0 КГц
Битовая глубина                          : 16 бит
Метод сжатия                             : С потерями
Размер потока                            : 147 Мбайт (1%)
Язык                                     : Russian
Аудио #4
Идентификатор                            : 4355 (0x1103)
Идентификатор меню                       : 1 (0x1)
Формат                                   : AC-3
Формат/Информация                        : Audio Coding 3
Расширение режима                        : CM (complete main)
Параметр Endianness формата              : Big
Идентификатор кодека                     : 129
Продолжительность                        : 1 ч. 46 м.
Вид битрейта                             : Постоянный
Битрейт                                  : 192 Кбит/сек
Каналы                                   : 2 канала
Расположение каналов                     : Front: L R
Частота                                  : 48,0 КГц
Битовая глубина                          : 16 бит
Метод сжатия                             : С потерями
Размер потока                            : 147 Мбайт (1%)
Язык                                     : Russian
Аудио #5
Идентификатор                            : 4356 (0x1104)
Идентификатор меню                       : 1 (0x1)
Формат                                   : AC-3
Формат/Информация                        : Audio Coding 3
Расширение режима                        : CM (complete main)
Параметр Endianness формата              : Big
Идентификатор кодека                     : 129
Продолжительность                        : 1 ч. 46 м.
Вид битрейта                             : Постоянный
Битрейт                                  : 384 Кбит/сек
Каналы                                   : 2 канала
Расположение каналов                     : Front: L R
Частота                                  : 48,0 КГц
Битовая глубина                          : 16 бит
Метод сжатия                             : С потерями
Размер потока                            : 293 Мбайт (2%)
Язык                                     : Russian
Аудио #6
Идентификатор                            : 4357 (0x1105)
Идентификатор меню                       : 1 (0x1)
Формат                                   : AC-3
Формат/Информация                        : Audio Coding 3
Расширение режима                        : CM (complete main)
Параметр Endianness формата              : Big
Идентификатор кодека                     : 129
Продолжительность                        : 1 ч. 46 м.
Вид битрейта                             : Постоянный
Битрейт                                  : 192 Кбит/сек
Каналы                                   : 2 канала
Расположение каналов                     : Front: L R
Частота                                  : 48,0 КГц
Битовая глубина                          : 16 бит
Метод сжатия                             : С потерями
Размер потока                            : 147 Мбайт (1%)
Язык                                     : Russian
Аудио #7
Идентификатор                            : 4358 (0x1106)
Идентификатор меню                       : 1 (0x1)
Формат                                   : AC-3
Формат/Информация                        : Audio Coding 3
Расширение режима                        : CM (complete main)
Параметр Endianness формата              : Big
Идентификатор кодека                     : 129
Продолжительность                        : 1 ч. 46 м.
Вид битрейта                             : Постоянный
Битрейт                                  : 256 Кбит/сек
Каналы                                   : 2 канала
Расположение каналов                     : Front: L R
Частота                                  : 48,0 КГц
Битовая глубина                          : 16 бит
Метод сжатия                             : С потерями
Размер потока                            : 195 Мбайт (2%)
Язык                                     : Russian
Аудио #8
Идентификатор                            : 4359 (0x1107)
Идентификатор меню                       : 1 (0x1)
Формат                                   : AC-3
Формат/Информация                        : Audio Coding 3
Расширение режима                        : CM (complete main)
Параметр Endianness формата              : Big
Идентификатор кодека                     : 129
Продолжительность                        : 1 ч. 46 м.
Вид битрейта                             : Постоянный
Битрейт                                  : 384 Кбит/сек
Каналы                                   : 6 каналов
Расположение каналов                     : Front: L C R, Side: L R, LFE
Частота                                  : 48,0 КГц
Битовая глубина                          : 16 бит
Метод сжатия                             : С потерями
Размер потока                            : 293 Мбайт (2%)
Язык                                     : Russian
Аудио #9
Идентификатор                            : 4360 (0x1108)
Идентификатор меню                       : 1 (0x1)
Формат                                   : AC-3
Формат/Информация                        : Audio Coding 3
Расширение режима                        : CM (complete main)
Параметр Endianness формата              : Big
Идентификатор кодека                     : 129
Продолжительность                        : 1 ч. 46 м.
Вид битрейта                             : Постоянный
Битрейт                                  : 384 Кбит/сек
Каналы                                   : 2 канала
Расположение каналов                     : Front: L R
Частота                                  : 48,0 КГц
Битовая глубина                          : 16 бит
Метод сжатия                             : С потерями
Размер потока                            : 293 Мбайт (2%)
Язык                                     : English

Рецензия, отзыв:

Очень смешной фильм!!! Было приятно видеть Арни в необычной для себя роли, где он предстает без «брони» «железного арни». В этом фильме он обычный провинциальный парень ботаник, немного отставший от жизни. И стоит отметить Арни блестяще справился с ролью, за ним очень интересно наблюдать, за его мимикой, движениями, и уж тем более фразами.
Герой Денни ДеВито колоритен. В принципе типичная роль ДеВито, но сыгранная как всегда им просто потрясно! Получился очень смешной, необычный и незабываемый дуэт. Который на протяжении всего фильма нас веселит ну очень сильно! Фильм, уже классика комедии, очень приятное зрелище, смотреть всем обязательно!
8 из 10
Скриншоты:
Не жилим спасибо. Не забываем голосовать за трекер!!!


Показать сообщения:    

Текущее время: 26-Авг 07:42

Часовой пояс: UTC + 3


Вы не можете начинать темы
Вы не можете отвечать на сообщения
Вы не можете редактировать свои сообщения
Вы не можете удалять свои сообщения
Вы не можете голосовать в опросах
Вы не можете прикреплять файлы к сообщениям
Вы не можете скачивать файлы

!ВНИМАНИЕ!
Сайт не предоставляет электронные версии произведений, а занимается лишь коллекционированием и каталогизацией ссылок, присылаемых и публикуемых на форуме нашими читателями. Если вы являетесь правообладателем какого-либо представленного материала и не желаете, чтобы ссылка на него находилась в нашем каталоге, свяжитесь с нами, и мы незамедлительно удалим ее. Файлы для обмена на трекере предоставлены пользователями сайта, и администрация не несет ответственности за их содержание. Просьба не заливать файлы, защищенные авторскими правами, а также файлы нелегального содержания!