۩ ‼ Вы находитесь на Бесплатном торрент-трекере TORRNADA.com ۩ Зарегистрируйтесь для получения полного доступа ко всем функциям сайта ! ۩ После регистрации подпишитесь на нашу рассылку в своём профиле ۩
Auto Web Pinger

 

[Цитировать]

Солёное поле боя / Salting the Battlefield (2014) BDRip [H.264/720p] [EN]
- Производство: Великобритания, NBC Universal, British Broadcasting Corporation (BBC), Heyday Films, Carnival Film & Television, Beagle Pug Films and Masterpiece.
Жанр: боевик, драма, криминал, детектив
Режиссер: Дэвид Хэа
Актеры: Рэйф Файнс, Анна Бёгер, Шазад Латиф, Фелисити Джонс, Джеймс МакАрдл, Билл Найи, Саския Ривз, Дэниэл Райан, Лиэнн Бест, Джуди Дэвис, Хелена Бонем Картер, Юэн Бремнер
Описание:
В центре сюжета детективной драмы два спецагента - Джонни Уоррикер и Марго Тирел, которые находятся в Европе в бегах. По их следу идет МИ-6. Они понимают, что так не может продолжаться всю жизнь и осознают, что их вот-вот могут обнаружить. Единственный способ разрешить эту дилемму - это вернуться в Великобританию и встретиться с премьер-министром.

Продолжительность: 01:36:46
Качество видео: BDRip [H.264/720p]
Перевод: Отсутствует
Язык озвучки: Английский
Видео: AVC, 1280x536 (2.40:1), 6093 kbps, 23,976 fps, 0,370 bpp
Аудио: AC3 / 5.1 / 48 kHz / 640 kbps / 16 bit

MediaInfo

General
Unique ID
Complete name                           Salting the Battlefield.720p.mkv
Format                                   : Matroska
Format version                           : Version 4 / Version 2
File size                                : 4.64 GiB
Duration                                 : 1h 36mn
Overall bit rate                         : 6 870 Kbps
Encoded date                             : UTC 2015-07-21 13:07:44
Writing application                      : mkvmerge v6.8.0 ('Theme for Great Cities') 64bit built on Mar  2 2014 21:34:26
Writing library                          : libebml v1.3.0 + libmatroska v1.4.1
Video
ID                                       : 1
Format                                   : AVC
Format/Info                              : Advanced Video Codec
Format profile                           : High@L4.1
Format settings, CABAC                   : Yes
Format settings, ReFrames                : 12 frames
Codec ID                                 : V_MPEG4/ISO/AVC
Duration                                 : 1h 36mn
Bit rate                                 : 6 093 Kbps
Width                                    : 1 280 pixels
Height                                   : 536 pixels
Display aspect ratio                     : 2.40:1
Frame rate                               : 23.976 fps
Color space                              : YUV
Chroma subsampling                       : 4:2:0
Bit depth                                : 8 bits
Scan type                                : Progressive
Bits/(Pixel*Frame)                       : 0.370
Stream size                              : 4.12 GiB (89%)
Writing library                          : x264 core 142 r2409kMod d6b4e63
Encoding settings                        : cabac=1 / ref=12 / deblock=1:-3:-3 / analyse=0x3:0x133 / me=umh / subme=10 / psy=1 / fade_compensate=0.00 / psy_rd=1.00:0.00 / mixed_ref=1 / me_range=32 / chroma_me=1 / trellis=2 / 8x8dct=1 / cqm=0 / deadzone=21,11 / fast_pskip=0 / chroma_qp_offset=-2 / threads=6 / lookahead_threads=1 / sliced_threads=0 / nr=0 / decimate=0 / interlaced=0 / bluray_compat=0 / constrained_intra=0 / fgo=0 / bframes=9 / b_pyramid=2 / b_adapt=2 / b_bias=0 / direct=3 / weightb=1 / open_gop=0 / weightp=2 / keyint=250 / keyint_min=24 / scenecut=40 / intra_refresh=0 / rc=crf / mbtree=0 / crf=15.8000 / qcomp=0.60 / qpmin=0 / qpmax=69 / qpstep=4 / ip_ratio=1.35 / pb_ratio=1.25 / aq=3:0.80
Language                                 : English
Default                                  : Yes
Forced                                   : No
Matrix coefficients                      : BT.709-5, BT.1361, IEC 61966-2-4 709, SMPTE RP177
Audio
ID                                       : 2
Format                                   : AC-3
Format/Info                              : Audio Coding 3
Mode extension                           : CM (complete main)
Codec ID                                 : A_AC3
Duration                                 : 1h 36mn
Bit rate mode                            : Constant
Bit rate                                 : 640 Kbps
Channel(s)                               : 6 channels
Channel positions                        : Front: L C R, Side: L R, LFE
Sampling rate                            : 48.0 KHz
Bit depth                                : 16 bits
Compression mode                         : Lossy
Stream size                              : 443 MiB (9%)
Default                                  : Yes
Forced                                   : No
Menu
00:00:00.000                             : en:00:00:00.000
00:06:32.434                             : en:00:06:32.434
00:20:47.455                             : en:00:20:47.455
00:25:15.472                             : en:00:25:15.472
00:34:30.527                             : en:00:34:30.527
00:41:56.931                             : en:00:41:56.931
00:52:52.878                             : en:00:52:52.878
01:00:53.900                             : en:01:00:53.900
01:11:14.604                             : en:01:11:14.604
01:22:30.195                             : en:01:22:30.195
01:27:49.055                             : en:01:27:49.055
01:35:59.712                             : en:01:35:59.712
-Скриншоты:
Не жилим спасибо. Не забываем голосовать за трекер!!!


Показать сообщения:    

Текущее время: 25-Май 10:29

Часовой пояс: UTC + 3


Вы не можете начинать темы
Вы не можете отвечать на сообщения
Вы не можете редактировать свои сообщения
Вы не можете удалять свои сообщения
Вы не можете голосовать в опросах
Вы не можете прикреплять файлы к сообщениям
Вы не можете скачивать файлы

!ВНИМАНИЕ!
Сайт не предоставляет электронные версии произведений, а занимается лишь коллекционированием и каталогизацией ссылок, присылаемых и публикуемых на форуме нашими читателями. Если вы являетесь правообладателем какого-либо представленного материала и не желаете, чтобы ссылка на него находилась в нашем каталоге, свяжитесь с нами, и мы незамедлительно удалим ее. Файлы для обмена на трекере предоставлены пользователями сайта, и администрация не несет ответственности за их содержание. Просьба не заливать файлы, защищенные авторскими правами, а также файлы нелегального содержания!