۩ ‼ Вы находитесь на Бесплатном торрент-трекере TORRNADA.com ۩ Зарегистрируйтесь для получения полного доступа ко всем функциям сайта ! ۩ После регистрации подпишитесь на нашу рассылку в своём профиле ۩
Auto Web Pinger

 

[Цитировать]

Ганмен / The Gunman (2015) BDRip [H.264/1080p]- Производство: США, Испания, Великобритания, Франция, Amazon Prime Instant Video, Anton Capital Entertainment, Canal+
Жанр: Боевик, Триллер, Драма, Криминал
Режиссер: Пьер Морель
Актеры: Шон Пенн, Хавьер Бардем, Рэй Уинстон, Жазмин Тринка, Идрис Эльба, Марк Райлэнс, Петер Францен, Билли Биллинхэм, Дэниэл Адегбойега, Адэ Ойефесо
Описание:
Джим Террье — ганмен, международный наемник высочайшего класса. Но когда в Компании начинают подчищать хвосты, Джим сам становится мишенью. Чтобы выжить, Джим угрожает обнародовать имеющийся у него компромат и обращается к бывшему напарнику Феликсу. Однако у Феликса есть свои резоны желать, чтобы Джим Террье исчез из его жизни. Это Энни — женщина, которую они оба любят. За Джимом начинается смертельная охота по всей Европе, и у него не остается другого выбора, кроме как дать бой — один против всех.

Дата мировой премьеры: 16 февраля 2015
Дата премьеры в России: 18 июня 2015, «Вольга»
Продолжительность: 01:55:40
Качество видео: BDRip
Перевод: Дублированный (iTunes)
Язык субтитров: Английский
Вид субтитров: Вшитые отключаемые
Видео: AVC/H.264, 1920x800, ~12500 Кбит/сек
Аудио 1: АС3 5.1, 384 Кбит/сек, Русский
Аудио 2: АС3 5.1, 640 Кбит/сек, Английский
Семпл: Скачать

Mediainfo:

Общее
Уникальный идентификатор                 : 178266999009800922308825497027554369792 (0x861CF9A35BC51AD9908AF3547B14E100)
Полное имя                               : C:Торренты\Ганмен.2015.D.BDRip.1080p.mkv
Формат                                   : Matroska
Версия формата                           : Version 2
Размер файла                             : 11,2 Гбайт
Продолжительность                        : 1 ч. 55 м.
Общий поток                              : 13,8 Мбит/сек
Дата кодирования                         : UTC 2015-07-21 08:10:38
Программа кодирования                    : mkvmerge v6.1.0 ('Old Devil') built on Mar  4 2013 09:10:42
Библиотека кодирования                   : libebml v1.3.0 + libmatroska v1.4.0
Видео
Идентификатор                            : 1
Формат                                   : AVC
Формат/Информация                        : Advanced Video Codec
Профиль формата                          : High@L4.1
Параметр CABAC формата                   : Да
Параметр ReFrames формата                : 5 кадров
Идентификатор кодека                     : V_MPEG4/ISO/AVC
Продолжительность                        : 1 ч. 55 м.
Битрейт                                  : 12,5 Мбит/сек
Ширина                                   : 1920 пикселей
Высота                                   : 800 пикселей
Соотношение сторон                       : 2,40:1
Режим частоты кадров                     : Постоянный
Частота кадров                           : 23,976 кадра/сек
Цветовое пространство                    : YUV
Субдискретизация насыщенности            : 4:2:0
Битовая глубина                          : 8 бит
Тип развёртки                            : Прогрессивная
Бит/(Пиксели*Кадры)                      : 0.341
Размер потока                            : 10,1 Гбайт (91%)
Библиотека кодирования                   : x264 core 142 r2431+42 c69a006 tMod [8-bit@all X86_64]
Настройки программы                      : cabac=1 / ref=5 / deblock=1:-3:-3 / analyse=0x3:0x133 / me=umh / subme=10 / psy=1 / fade_compensate=0.00 / psy_rd=0.90:0.00 / mixed_ref=1 / me_range=32 / chroma_me=1 / trellis=2 / 8x8dct=1 / cqm=0 / deadzone=21,11 / fast_pskip=0 / chroma_qp_offset=-2 / threads=6 / lookahead_threads=1 / sliced_threads=0 / nr=0 / decimate=0 / interlaced=0 / bluray_compat=0 / constrained_intra=0 / fgo=0 / bframes=8 / b_pyramid=2 / b_adapt=2 / b_bias=0 / direct=3 / weightb=1 / open_gop=0 / weightp=2 / keyint=250 / keyint_min=23 / scenecut=40 / intra_refresh=0 / rc=crf / mbtree=0 / crf=16.0000 / qcomp=0.60 / qpmin=0:0:0 / qpmax=69:69:69 / qpstep=4 / ip_ratio=1.20 / pb_ratio=1.10 / aq=4:0.85 / aq-sensitivity=10.00 / aq-factor=1.00:1.00:1.00 / aq2=0 / aq3=0
Язык                                     : English
Default                                  : Да
Forced                                   : Нет
Аудио #1
Идентификатор                            : 2
Формат                                   : AC-3
Формат/Информация                        : Audio Coding 3
Расширение режима                        : CM (complete main)
Параметр Endianness формата              : Big
Идентификатор кодека                     : A_AC3
Продолжительность                        : 1 ч. 55 м.
Вид битрейта                             : Постоянный
Битрейт                                  : 384 Кбит/сек
Каналы                                   : 6 каналов
Расположение каналов                     : Front: L C R, Side: L R, LFE
Частота                                  : 48,0 КГц
Метод сжатия                             : С потерями
Размер потока                            : 318 Мбайт (3%)
Заголовок                                : iTunes | DD 5.1 @ 384 kbps
Язык                                     : Russian
Default                                  : Да
Forced                                   : Да
Аудио #2
Идентификатор                            : 3
Формат                                   : AC-3
Формат/Информация                        : Audio Coding 3
Расширение режима                        : CM (complete main)
Параметр Endianness формата              : Big
Идентификатор кодека                     : A_AC3
Продолжительность                        : 1 ч. 55 м.
Вид битрейта                             : Постоянный
Битрейт                                  : 640 Кбит/сек
Каналы                                   : 6 каналов
Расположение каналов                     : Front: L C R, Side: L R, LFE
Частота                                  : 48,0 КГц
Метод сжатия                             : С потерями
Размер потока                            : 529 Мбайт (5%)
Заголовок                                : Original | DD 5.1 @ 640 kbps
Язык                                     : English
Default                                  : Нет
Forced                                   : Нет
Текст #1
Идентификатор                            : 4
Формат                                   : UTF-8
Идентификатор кодека                     : S_TEXT/UTF8
Идентификатор кодека/Информация          : UTF-8 Plain Text
Заголовок                                : Full
Язык                                     : English
Default                                  : Нет
Forced                                   : Нет
Текст #2
Идентификатор                            : 5
Формат                                   : UTF-8
Идентификатор кодека                     : S_TEXT/UTF8
Идентификатор кодека/Информация          : UTF-8 Plain Text
Заголовок                                : SDH
Язык                                     : English
Default                                  : Нет
Forced                                   : Нет
Текст #3
Идентификатор                            : 6
Формат                                   : UTF-8
Идентификатор кодека                     : S_TEXT/UTF8
Идентификатор кодека/Информация          : UTF-8 Plain Text
Заголовок                                : SDH-Colored
Язык                                     : English
Default                                  : Нет
Forced                                   : Нет
Меню
00:00:00.000                             : en:00:00:00.000
00:04:48.747                             : en:00:04:48.747
00:10:29.963                             : en:00:10:29.963
00:14:22.987                             : en:00:14:22.987
00:18:00.788                             : en:00:18:00.788
00:23:17.396                             : en:00:23:17.396
00:27:53.130                             : en:00:27:53.130
00:34:14.886                             : en:00:34:14.886
00:39:51.139                             : en:00:39:51.139
00:45:51.582                             : en:00:45:51.582
00:50:19.934                             : en:00:50:19.934
00:58:10.404                             : en:00:58:10.404
01:04:37.165                             : en:01:04:37.165
01:08:27.478                             : en:01:08:27.478
01:14:44.230                             : en:01:14:44.230
01:21:37.726                             : en:01:21:37.726
01:31:18.223                             : en:01:31:18.223
01:38:39.330                             : en:01:38:39.330
01:45:34.370                             : en:01:45:34.370
01:49:15.841                             : en:01:49:15.841
Скриншоты:
Не жилим спасибо. Не забываем голосовать за трекер!!!


Показать сообщения:    

Текущее время: 24-Авг 06:16

Часовой пояс: UTC + 3


Вы не можете начинать темы
Вы не можете отвечать на сообщения
Вы не можете редактировать свои сообщения
Вы не можете удалять свои сообщения
Вы не можете голосовать в опросах
Вы не можете прикреплять файлы к сообщениям
Вы не можете скачивать файлы

!ВНИМАНИЕ!
Сайт не предоставляет электронные версии произведений, а занимается лишь коллекционированием и каталогизацией ссылок, присылаемых и публикуемых на форуме нашими читателями. Если вы являетесь правообладателем какого-либо представленного материала и не желаете, чтобы ссылка на него находилась в нашем каталоге, свяжитесь с нами, и мы незамедлительно удалим ее. Файлы для обмена на трекере предоставлены пользователями сайта, и администрация не несет ответственности за их содержание. Просьба не заливать файлы, защищенные авторскими правами, а также файлы нелегального содержания!