۩ ‼ Вы находитесь на Бесплатном торрент-трекере TORRNADA.com ۩ Зарегистрируйтесь для получения полного доступа ко всем функциям сайта ! ۩ После регистрации подпишитесь на нашу рассылку в своём профиле ۩
Auto Web Pinger

 

[Цитировать]

7 дней в аду / 7 Days in Hell (2015) HDTV [H.264/1080i]- Производство: США, Home Box Office (HBO)
Жанр: Комедия, Спорт
Режиссер: Джейк Зиманский
Актеры: Энди Сэмберг, Кит Харингтон, Карен Гиллан, Майкл Шин, Мэри Стинберген, Лина Данэм, Уилл Форте, Серена Уильямс, Хоуи Мэндел, Фред Армисен
Описание:
Псевдодокументальный фильм НВО о комичном теннисном матче длинною в семь дней. Пародию на спортивное противостояние комментирует непобедимая Сирена Уильямс и знаток большого тенниса Уилл Форте.

Дата мировой премьеры: 13 марта 2015
Дата премьеры в России: 18 июля 2015
Продолжительность: 00:41:55
Качество видео: HDTV [1080i]
Перевод: Многоголосый закадровый
Автор перевода: AMedia HD
Видео: AVC/H.264, 1920х1080, ~6724 kbps
Аудио 1 Rus: MPEG Audio Layer 2, 2 ch, 48,0 kHz, 192 kbps - многоголосый закадровый
Аудио 2 Eng: MPEG Audio Layer 2, 2 ch, 48,0 kHz, 192 kbps - оригинал
Аудио 3 Rus: АС-3, 6 ch, 48,0 kHz, 384 kbps - многоголосый закадровый
Семпл: Скачать

Mediainfo:

Общее
Идентификатор                            : 16 (0x10)
Полное имя                               : 7 Days in Hell_HD.ts
Формат                                   : MPEG-TS
Размер файла                             : 2,31 Гбайт
Продолжительность                        : 41 м.
Режим общего битрейта                    : Переменный
Общий поток                              : 7890 Кбит/сек
Видео
Идентификатор                            : 1812 (0x714)
Идентификатор меню                       : 812 (0x32C)
Формат                                   : AVC
Формат/Информация                        : Advanced Video Codec
Профиль формата                          : High@L4.0
Параметр CABAC формата                   : Да
Параметр ReFrames формата                : 4 кадра
Идентификатор кодека                     : 27
Продолжительность                        : 41 м.
Битрейт                                  : 6724 Кбит/сек
Ширина                                   : 1920 пикселей
Высота                                   : 1080 пикселей
Соотношение сторон                       : 16:9
Частота кадров                           : 25,000 кадров/сек
Стандарт вещания                         : PAL
Цветовое пространство                    : YUV
Субдискретизация насыщенности            : 4:2:0
Битовая глубина                          : 8 бит
Тип развёртки                            : MBAFF
Бит/(Пиксели*Кадры)                      : 0.130
Размер потока                            : 1,97 Гбайт (85%)
Основные цвета                           : BT.709
Характеристики трансфера                 : BT.709
Коэффициенты матрицы                     : BT.709
Аудио #1
Идентификатор                            : 2812 (0xAFC)
Идентификатор меню                       : 812 (0x32C)
Формат                                   : MPEG Audio
Версия формата                           : Version 1
Профиль формата                          : Layer 2
Идентификатор кодека                     : 4
Продолжительность                        : 41 м.
Вид битрейта                             : Постоянный
Битрейт                                  : 192 Кбит/сек
Каналы                                   : 2 канала
Частота                                  : 48,0 КГц
Метод сжатия                             : С потерями
Задержка видео                           : 170 мс.
Размер потока                            : 57,6 Мбайт (2%)
Язык                                     : std
Язык, дополнительно                      : Clean effects
Аудио #2
Идентификатор                            : 3812 (0xEE4)
Идентификатор меню                       : 812 (0x32C)
Формат                                   : MPEG Audio
Версия формата                           : Version 1
Профиль формата                          : Layer 2
Режим                                    : Joint stereo
Расширение режима                        : Intensity Stereo + MS Stereo
Идентификатор кодека                     : 4
Продолжительность                        : 41 м.
Вид битрейта                             : Постоянный
Битрейт                                  : 192 Кбит/сек
Каналы                                   : 2 канала
Частота                                  : 48,0 КГц
Метод сжатия                             : С потерями
Задержка видео                           : 170 мс.
Размер потока                            : 57,6 Мбайт (2%)
Язык                                     : English
Язык, дополнительно                      : Clean effects
Аудио #3
Идентификатор                            : 4812 (0x12CC)
Идентификатор меню                       : 812 (0x32C)
Формат                                   : AC-3
Формат/Информация                        : Audio Coding 3
Расширение режима                        : CM (complete main)
Параметр Endianness формата              : Big
Идентификатор кодека                     : 6
Продолжительность                        : 41 м.
Вид битрейта                             : Постоянный
Битрейт                                  : 384 Кбит/сек
Каналы                                   : 6 каналов
Расположение каналов                     : Front: L C R, Side: L R, LFE
Частота                                  : 48,0 КГц
Битовая глубина                          : 16 бит
Метод сжатия                             : С потерями
Задержка видео                           : 245 мс.
Размер потока                            : 115 Мбайт (5%)
Язык                                     : std
Язык, дополнительно                      : Clean effects
Текст
Идентификатор                            : 63 (0x3F)-100
Идентификатор меню                       : 812 (0x32C)
Формат                                   : Teletext
Меню
Идентификатор                            : 812 (0x32C)
Идентификатор меню                       : 812 (0x32C)
Продолжительность                        : 41 м.
Список                                   : 1812 (0x714) (AVC) / 2812 (0xAFC) (MPEG Audio, std) / 3812 (0xEE4) (MPEG Audio, English) / 4812 (0x12CC) (AC-3, std) / 63 (0x3F) ()
Язык                                     :  / std / English / std

Рецензия, отзыв:

Туда, где женщины покрасивее, а наркота позабористее
Классика упоротой американской комедии, так сказать. Эпатажный теннисист Аарон Уильямс покидает большой теннис после драматичного инцидента во время матча, с тем чтобы никогда туда не возвращаться. Но неосторожное замечание другого популярного игрока, знакомого многим из нас по роли Джона Сноу в «Игре престолов», заставляет Аарона передумать и вновь появиться на площадке с целью доказать всем своё величие.
Кому точно не стоит смотреть этот фильм? Ну, к примеру, гомофобам. Тема однополого секса тут раскрыта чуть более чем откровенно, особенно в очаровательно мерзкой мультяшной части про шведскую тюрьму.
Любители тонкого и изысканного юмора тоже, скорее всего, будут разочарованы. Количество шуток ниже пояса и анатомических подробностей несколько выше, чем привыкли видеть люди с изысканным вкусом.
Но если вы любите пошловатые, скабрезные шуточки, а также наркоманский юмор, то подобный вариант Уимблдонского турнира не вызовет у вас ничего, кроме сожаления о том, что в реальной жизни все куда скучнее. Энди Сэмберг всю дорогу распространяет вокруг обаяние классического бэдбоя, а его соперник еще более нескладный и недоумевающий, чем Джон, кукусик наш, Сноу. Словом, классика жанра.
Скриншоты:
Время раздачи: Пн-Пт с 18:00 до 22:00


Показать сообщения:    

Текущее время: 24-Май 22:49

Часовой пояс: UTC + 3


Вы не можете начинать темы
Вы не можете отвечать на сообщения
Вы не можете редактировать свои сообщения
Вы не можете удалять свои сообщения
Вы не можете голосовать в опросах
Вы не можете прикреплять файлы к сообщениям
Вы не можете скачивать файлы

!ВНИМАНИЕ!
Сайт не предоставляет электронные версии произведений, а занимается лишь коллекционированием и каталогизацией ссылок, присылаемых и публикуемых на форуме нашими читателями. Если вы являетесь правообладателем какого-либо представленного материала и не желаете, чтобы ссылка на него находилась в нашем каталоге, свяжитесь с нами, и мы незамедлительно удалим ее. Файлы для обмена на трекере предоставлены пользователями сайта, и администрация не несет ответственности за их содержание. Просьба не заливать файлы, защищенные авторскими правами, а также файлы нелегального содержания!