۩ ‼ Вы находитесь на Бесплатном торрент-трекере TORRNADA.com ۩ Зарегистрируйтесь для получения полного доступа ко всем функциям сайта ! ۩ После регистрации подпишитесь на нашу рассылку в своём профиле ۩
Auto Web Pinger

 

[Цитировать]

VA - Top 40 (Movies) (2014) 2CD-
Год: 2014
Жанр: Pop, Soul, Rock Лейбл: Crimson /Каталог #: CRIMT40020
Кодек: FLAC /Битрейт: Lossless /Тип рипа: tracks + .cue
Продолжительность: 02:23:31

CD1:

Продолжительность - 01:10:55
Треклист:
01.Bay City Rollers - Bye Bye Baby [2:51]
02.Dolly Parton - 9 To 5 [2:47]
03.Edison Lighthouse - Love Grows (Where My Rosemary Goes) [2:51]
04.Leo Sayer - You Make Me Feel Like Dancing [3:39]
05.Bow Wow Wow - I Want Candy [2:46]
06.Freda Payne - Band Of Gold [2:56]
07.Des'ree - I'm Kissing You [4:53]
08.Billy Ocean - When The Going Gets Tough The Tough Get Going [3:01]
09.Barry Blue - Dancin' (On A Saturday Night) [3:13]
10.Delfonics - Didn't I (Blow Your Mind This Time) [3:23]
11.Bonnie Tyler - Holding Out For A Hero [4:23]
12.Boy Meets Girl - Waiting For A Star To Fall [4:30]
13.Kenny Loggins - Footloose [3:48]
14.Deniece Williams - Let's Hear It For The Boy [4:15]
15.Bill Withers - Ain't No Sunshine [2:05]
16.Diana King - Shy Guy [3:42]
17.TLC - Waterfalls [3:28]
18.Another Level - From The Heart [4:54]
19.Backstreet Boys - Larger Than Life [3:54]
20.Crazy Town - Butterfly [3:37]

Отчёт ЕАС:

Exact Audio Copy V1.0 beta 3 from 29. August 2011
EAC extraction logfile from 13. October 2014, 0:52
Various Artists / Top 40 Movies (2014) CD1
Used drive  : hp      CDDVDW TS-L633N   Adapter: 0  ID: 1
Read mode               : Secure
Utilize accurate stream : Yes
Defeat audio cache      : Yes
Make use of C2 pointers : No
Read offset correction                      : 6
Overread into Lead-In and Lead-Out          : No
Fill up missing offset samples with silence : Yes
Delete leading and trailing silent blocks   : No
Null samples used in CRC calculations       : Yes
Used interface                              : Native Win32 interface for Win NT & 2000
Gap handling                                : Appended to previous track
Used output format              : User Defined Encoder
Selected bitrate                : 1024 kBit/s
Quality                         : High
Add ID3 tag                     : No
Command line compressor         : C:\Program Files (x86)\Exact Audio Copy\Flac\flac.exe
Additional command line options : -8 -V -T "ARTIST=%artist%" -T "TITLE=%title%" -T "ALBUM=%albumtitle%" -T "DATE=%year%" -T "TRACKNUMBER=%tracknr%" -T "GENRE=%genre%" -T "PERFORMER=%albuminterpret%" -T "COMPOSER=%composer%" %haslyrics%--tag-from-file=LYRICS="%lyricsfile%"%haslyrics% -T "ALBUMARTIST=%albumartist%" -T "DISCNUMBER=%cdnumber%" -T "TOTALDISCS=%totalcds%" -T "TOTALTRACKS=%numtracks%" -T "COMMENT=%comment%" %source% -o %dest%
TOC of the extracted CD
     Track |   Start  |  Length  | Start sector | End sector
    ---------------------------------------------------------
        1  |  0:00.00 |  2:51.32 |         0    |    12856
        2  |  2:51.32 |  2:46.44 |     12857    |    25350
        3  |  5:38.01 |  2:50.60 |     25351    |    38160
        4  |  8:28.61 |  3:38.45 |     38161    |    54555
        5  | 12:07.31 |  2:45.49 |     54556    |    66979
        6  | 14:53.05 |  2:55.65 |     66980    |    80169
        7  | 17:48.70 |  4:53.34 |     80170    |   102178
        8  | 22:42.29 |  3:00.42 |    102179    |   115720
        9  | 25:42.71 |  3:12.68 |    115721    |   130188
       10  | 28:55.64 |  3:22.50 |    130189    |   145388
       11  | 32:18.39 |  4:22.74 |    145389    |   165112
       12  | 36:41.38 |  4:29.44 |    165113    |   185331
       13  | 41:11.07 |  3:48.22 |    185332    |   202453
       14  | 44:59.29 |  4:14.61 |    202454    |   221564
       15  | 49:14.15 |  2:05.05 |    221565    |   230944
       16  | 51:19.20 |  3:42.13 |    230945    |   247607
       17  | 55:01.33 |  3:27.54 |    247608    |   263186
       18  | 58:29.12 |  4:54.11 |    263187    |   285247
       19  | 63:23.23 |  3:54.19 |    285248    |   302816
       20  | 67:17.42 |  3:37.26 |    302817    |   319117
Track  1
     Filename E:\CDRips\01 - Bay City Rollers - Bye Bye Baby [1974].wav
     Pre-gap length  0:00:02.00
     Peak level 99.4 %
     Extraction speed 2.2 X
     Track quality 100.0 %
     Test CRC CC0D44A6
     Copy CRC CC0D44A6
     Track not present in AccurateRip database
     Copy OK
Track  2
     Filename E:\CDRips\02 - Dolly Parton - 9 To 5 [1980].wav
     Pre-gap length  0:00:01.80
     Peak level 99.4 %
     Extraction speed 2.3 X
     Track quality 100.0 %
     Test CRC 6FB7E9BD
     Copy CRC 6FB7E9BD
     Track not present in AccurateRip database
     Copy OK
Track  3
     Filename E:\CDRips\03 - Edison Lighthouse - Love Grows (Where My Rosemary Goes) [1970].wav
     Pre-gap length  0:00:01.80
     Peak level 92.7 %
     Extraction speed 2.5 X
     Track quality 100.0 %
     Test CRC C6220095
     Copy CRC C6220095
     Track not present in AccurateRip database
     Copy OK
Track  4
     Filename E:\CDRips\04 - Leo Sayer - You Make Me Feel Like Dancing [1976].wav
     Pre-gap length  0:00:01.80
     Peak level 99.4 %
     Extraction speed 2.7 X
     Track quality 100.0 %
     Test CRC 293B219B
     Copy CRC 293B219B
     Track not present in AccurateRip database
     Copy OK
Track  5
     Filename E:\CDRips\05 - Bow Wow Wow - I Want Candy [1982].wav
     Pre-gap length  0:00:01.78
     Peak level 99.4 %
     Extraction speed 2.0 X
     Track quality 99.9 %
     Test CRC DDB8B391
     Copy CRC DDB8B391
     Track not present in AccurateRip database
     Copy OK
Track  6
     Filename E:\CDRips\06 - Freda Payne - Band Of Gold [1970].wav
     Pre-gap length  0:00:01.80
     Peak level 99.4 %
     Extraction speed 2.8 X
     Track quality 100.0 %
     Test CRC C3D8E033
     Copy CRC C3D8E033
     Track not present in AccurateRip database
     Copy OK
Track  7
     Filename E:\CDRips\07 - Des'ree - I'm Kissing You [1996].wav
     Pre-gap length  0:00:01.80
     Peak level 99.4 %
     Extraction speed 2.7 X
     Track quality 99.9 %
     Test CRC 3C200C04
     Copy CRC 3C200C04
     Track not present in AccurateRip database
     Copy OK
Track  8
     Filename E:\CDRips\08 - Billy Ocean - When The Going Gets Tough The Tough Get Going [1985].wav
     Pre-gap length  0:00:01.80
     Peak level 86.8 %
     Extraction speed 2.4 X
     Track quality 99.9 %
     Test CRC 90D051D4
     Copy CRC 90D051D4
     Track not present in AccurateRip database
     Copy OK
Track  9
     Filename E:\CDRips\09 - Barry Blue - Dancin' (On A Saturday Night) [1973].wav
     Pre-gap length  0:00:01.80
     Peak level 99.4 %
     Extraction speed 2.5 X
     Track quality 99.9 %
     Test CRC FDA77A9B
     Copy CRC FDA77A9B
     Track not present in AccurateRip database
     Copy OK
Track 10
     Filename E:\CDRips\10 - Delfonics - Didn't I (Blow Your Mind This Time) [1969].wav
     Pre-gap length  0:00:01.80
     Peak level 92.7 %
     Extraction speed 3.4 X
     Track quality 100.0 %
     Test CRC A6EBF42E
     Copy CRC A6EBF42E
     Track not present in AccurateRip database
     Copy OK
Track 11
     Filename E:\CDRips\11 - Bonnie Tyler - Holding Out For A Hero [1984].wav
     Pre-gap length  0:00:01.80
     Peak level 99.4 %
     Extraction speed 3.7 X
     Track quality 100.0 %
     Test CRC F389958B
     Copy CRC F389958B
     Track not present in AccurateRip database
     Copy OK
Track 12
     Filename E:\CDRips\12 - Boy Meets Girl - Waiting For A Star To Fall [1987].wav
     Pre-gap length  0:00:01.80
     Peak level 99.4 %
     Extraction speed 3.1 X
     Track quality 99.9 %
     Test CRC 36EC5DF5
     Copy CRC 36EC5DF5
     Track not present in AccurateRip database
     Copy OK
Track 13
     Filename E:\CDRips\13 - Kenny Loggins - Footloose [1984].wav
     Pre-gap length  0:00:01.80
     Peak level 97.1 %
     Extraction speed 3.9 X
     Track quality 100.0 %
     Test CRC 1382598D
     Copy CRC 1382598D
     Track not present in AccurateRip database
     Copy OK
Track 14
     Filename E:\CDRips\14 - Deniece Williams - Let's Hear It For The Boy [1984].wav
     Pre-gap length  0:00:01.80
     Peak level 99.4 %
     Extraction speed 4.0 X
     Track quality 100.0 %
     Test CRC 6B9F6A74
     Copy CRC 6B9F6A74
     Track not present in AccurateRip database
     Copy OK
Track 15
     Filename E:\CDRips\15 - Bill Withers - Ain't No Sunshine [1971].wav
     Pre-gap length  0:00:01.80
     Peak level 90.6 %
     Extraction speed 3.6 X
     Track quality 100.0 %
     Test CRC 125A4464
     Copy CRC 125A4464
     Track not present in AccurateRip database
     Copy OK
Track 16
     Filename E:\CDRips\16 - Diana King - Shy Guy [1994].wav
     Pre-gap length  0:00:01.80
     Peak level 99.4 %
     Extraction speed 4.1 X
     Track quality 100.0 %
     Test CRC 5B435598
     Copy CRC 5B435598
     Track not present in AccurateRip database
     Copy OK
Track 17
     Filename E:\CDRips\17 - TLC - Waterfalls [1994].wav
     Pre-gap length  0:00:01.80
     Peak level 99.4 %
     Extraction speed 4.1 X
     Track quality 100.0 %
     Test CRC D5344EEA
     Copy CRC D5344EEA
     Track not present in AccurateRip database
     Copy OK
Track 18
     Filename E:\CDRips\18 - Another Level - From The Heart [1999].wav
     Pre-gap length  0:00:01.80
     Peak level 92.7 %
     Extraction speed 3.7 X
     Track quality 99.9 %
     Test CRC ED751142
     Copy CRC ED751142
     Track not present in AccurateRip database
     Copy OK
Track 19
     Filename E:\CDRips\19 - Backstreet Boys - Larger Than Life [1999].wav
     Pre-gap length  0:00:01.80
     Peak level 99.4 %
     Extraction speed 4.4 X
     Track quality 100.0 %
     Test CRC 359FBC4E
     Copy CRC 359FBC4E
     Track not present in AccurateRip database
     Copy OK
Track 20
     Filename E:\CDRips\20 - Crazy Town - Butterfly [1999].wav
     Pre-gap length  0:00:01.80
     Peak level 91.1 %
     Extraction speed 4.5 X
     Track quality 100.0 %
     Test CRC 66E9480F
     Copy CRC 66E9480F
     Track not present in AccurateRip database
     Copy OK
None of the tracks are present in the AccurateRip database
No errors occurred
End of status report
---- CUETools DB Plugin V2.1.3
[CTDB TOCID: wejFXMI9BCK_sOB45UaQikvnlXs-] disk not present in database, Submit result: wejFXMI9BCK_sOB45UaQikvnlXs- has been uploaded
==== Log checksum 182CE68A1B6EE772CD84B3BB729DFE6FECA918C989D7DA9520C6643C8C02C554 ====

Отчёт auCDtect Task manager:

-----------------------
DON'T MODIFY THIS FILE
-----------------------
PERFORMER: auCDtect Task Manager, ver. 1.6.0 RC1 build 1.6.0.1
Copyright (c) 2008-2010 y-soft. All rights reserved
http://y-soft.org
ANALYZER: auCDtect: CD records authenticity detector, version 0.8.2
Copyright (c) 2004 Oleg Berngardt. All rights reserved.
Copyright (c) 2004 Alexander Djourik. All rights reserved.
FILE: 20 - Crazy Town - Butterfly [1999].flac
  Size: 27115239 Hash: 1BC79DE8BBC7FD3B3134C85F0BC70183 Accuracy: -m0
  Conclusion: CDDA 100%
  Signature: EFCF11598A21B56A9EA336B6096D37D4A059174A
FILE: 19 - Backstreet Boys - Larger Than Life [1999].flac
  Size: 30530886 Hash: E2EFEEC89C543CB60C32177C22910088 Accuracy: -m0
  Conclusion: CDDA 100%
  Signature: 8F2E359C89BBA07ADDD44FFA3EFC34172B3BCDE1
FILE: 18 - Another Level - From The Heart [1999].flac
  Size: 36489185 Hash: ECF38357199470AD1075FD130DD14DAF Accuracy: -m0
  Conclusion: CDDA 100%
  Signature: 4B15AEA478582C8BFE8EA42EC43BB3944387B609
FILE: 17 - TLC - Waterfalls [1994].flac
  Size: 24502642 Hash: 52999F4F8D76F399204F5E1E609783BC Accuracy: -m0
  Conclusion: CDDA 100%
  Signature: 5B61F8F2448FAC26FF43AF536A1B2E2C707E5A1F
FILE: 16 - Diana King - Shy Guy [1994].flac
  Size: 27125468 Hash: 1B1A545882215A4C9D4117138D192B1E Accuracy: -m0
  Conclusion: CDDA 100%
  Signature: AA5C2D27D4809AE8D03DAB4C094996B12D92C250
FILE: 15 - Bill Withers - Ain't No Sunshine [1971].flac
  Size: 13681478 Hash: DBA6936E4C5A50357323A94CF4F62B35 Accuracy: -m0
  Conclusion: CDDA 100%
  Signature: B36F57479847C7F11914CBFA18398038907E999D
FILE: 14 - Deniece Williams - Let's Hear It For The Boy [1984].flac
  Size: 31265364 Hash: A108FFFA4BCB391965F0ADC2EE6D44A7 Accuracy: -m0
  Conclusion: MPEG 95%
  Signature: 3205E42484C438D1A9A8B9FB00ABE5FEC77A4A8E
FILE: 13 - Kenny Loggins - Footloose [1984].flac
  Size: 27797905 Hash: 8695761F1E18E27B7C095C87D9BFCF8E Accuracy: -m0
  Conclusion: CDDA 100%
  Signature: D991DE58C2B7E7F61B94141A0ED42A3713B0896F
FILE: 12 - Boy Meets Girl - Waiting For A Star To Fall [1987].flac
  Size: 35640825 Hash: A51D0D492EC1263EB40D2D24FD16EAB8 Accuracy: -m0
  Conclusion: CDDA 99%
  Signature: 08210CD612B66F4B2BC65D7803B1FD0C38BB003E
FILE: 11 - Bonnie Tyler - Holding Out For A Hero [1984].flac
  Size: 32593144 Hash: D41910D47A2A15913F0DC9EAFE022CBF Accuracy: -m0
  Conclusion: MPEG 95%
  Signature: 4863BE7DA66025F456D4BCB3923CFB875410822F
FILE: 10 - Delfonics - Didn't I (Blow Your Mind This Time) [1969].flac
  Size: 24323405 Hash: 7C5A55A6159C7DFD0339E9AD8E81D026 Accuracy: -m0
  Conclusion: CDDA 100%
  Signature: B6E527D9F329F97D1330FA6A964C8AF3320F9F6C
FILE: 09 - Barry Blue - Dancin' (On A Saturday Night) [1973].flac
  Size: 23790310 Hash: 78F84E129B84BD957B3B9D160F6344AB Accuracy: -m0
  Conclusion: CDDA 100%
  Signature: 352B57D5EF79E694EF5DFE1E910335CF636FCA58
FILE: 08 - Billy Ocean - When The Going Gets Tough The Tough Get Going [1985].flac
  Size: 23433191 Hash: 3D72D4A5CBC4E380BA4C2EA3090E10F5 Accuracy: -m0
  Conclusion: CDDA 100%
  Signature: 932FBB06C96C7C6A79FF58601B592ED3E41184FB
FILE: 07 - Des'ree - I'm Kissing You [1996].flac
  Size: 27631291 Hash: 18DD5A2D52B1EE82B3E5A72886AF4E4B Accuracy: -m0
  Conclusion: CDDA 100%
  Signature: F7D336B86525E9345A40F01253D6A90E3117C1B9
FILE: 06 - Freda Payne - Band Of Gold [1970].flac
  Size: 23008698 Hash: CAF1DD79B8DFC6BBB89CF40B3A4579DD Accuracy: -m0
  Conclusion: CDDA 100%
  Signature: 5F6A4BB0C3DD6F070F4DDCB453E0C282071A99E6
FILE: 05 - Bow Wow Wow - I Want Candy [1982].flac
  Size: 19330666 Hash: 4C031BD8823A36FDE359154D2D1AA37B Accuracy: -m0
  Conclusion: CDDA 100%
  Signature: 99441CDBEC82C77838967BFEACE04DE2CCAFAB55
FILE: 04 - Leo Sayer - You Make Me Feel Like Dancing [1976].flac
  Size: 26612680 Hash: A1CCA68495376F1F0E7626DBB7EC964E Accuracy: -m0
  Conclusion: CDDA 99%
  Signature: 59D9191EB5B682A840D643F1F189180226C77F79
FILE: 03 - Edison Lighthouse - Love Grows (Where My Rosemary Goes) [1970].flac
  Size: 21986210 Hash: C8E9B67F2885895312BDA61D0DADDA74 Accuracy: -m0
  Conclusion: CDDA 100%
  Signature: 7CB80726F03791E65E649E59CF7DC09BC766A998
FILE: 02 - Dolly Parton - 9 To 5 [1980].flac
  Size: 20614220 Hash: EAFD7E985A865BD3F0E9B718AF06428D Accuracy: -m0
  Conclusion: CDDA 100%
  Signature: A0FE7BE7BA58F3984C0B830F2295F830F984A479
FILE: 01 - Bay City Rollers - Bye Bye Baby [1974].flac
  Size: 20143160 Hash: C33DEF0B61E7B16EC56F7D0691E6A6F2 Accuracy: -m0
  Conclusion: MPEG 95%
  Signature: C76806909A3562FFDA494ECEB227D88CA397EB73

Спектрограмма:

CD2:

Продолжительность - 01:10:36
Треклист
01.Space (UK) - Female Of The Species [3:18]
02.Suede - Trash [4:08]
03.T-Rex - Ballrooms Of Mars [4:10]
04.Byrds - Turn Turn Turn [3:51]
05.Psychedelic Furs - Pretty In Pink [4:12]
06.Train - Hey Soul Sister [3:38]
07.Calling - Wherever You Will Go [3:26]
08.Savage Garden - Truly Madly Deeply [4:13]
09.Wannadies - You And Me Song [2:52]
10.Lovin' Spoonful - Summer In The City [2:42]
11.Mott The Hoople - All The Young Dudes [3:31]
12.Yardbirds - Over Under Sideways Down [2:25]
13.Dead Or Alive - You Spin Me Round (Like A Record) [3:02]
14.Ian Dury & The Blockheads - Hit Me With Your Rhythm Stick [3:44]
15.Survivor - Eye Of The Tiger [4:07]
16.Belinda Carlisle - Heaven Is A Place On Earth [3:55]
17.Cyndi Lauper - Time After Time [3:53]
18.Andy Williams - Can't Take My Eyes Off You [3:14]
19.Tony Bennett - The Way You Look Tonight [3:25]
20.Bobby Vinton - Blue Velvet [2:50]

Отчёт ЕАС:

Exact Audio Copy V1.0 beta 3 from 29. August 2011
EAC extraction logfile from 13. October 2014, 1:42
Various Artists / Top 40 Movies (2014) CD2
Used drive  : hp      CDDVDW TS-L633N   Adapter: 0  ID: 1
Read mode               : Secure
Utilize accurate stream : Yes
Defeat audio cache      : Yes
Make use of C2 pointers : No
Read offset correction                      : 6
Overread into Lead-In and Lead-Out          : No
Fill up missing offset samples with silence : Yes
Delete leading and trailing silent blocks   : No
Null samples used in CRC calculations       : Yes
Used interface                              : Native Win32 interface for Win NT & 2000
Gap handling                                : Appended to previous track
Used output format              : User Defined Encoder
Selected bitrate                : 1024 kBit/s
Quality                         : High
Add ID3 tag                     : No
Command line compressor         : C:\Program Files (x86)\Exact Audio Copy\Flac\flac.exe
Additional command line options : -8 -V -T "ARTIST=%artist%" -T "TITLE=%title%" -T "ALBUM=%albumtitle%" -T "DATE=%year%" -T "TRACKNUMBER=%tracknr%" -T "GENRE=%genre%" -T "PERFORMER=%albuminterpret%" -T "COMPOSER=%composer%" %haslyrics%--tag-from-file=LYRICS="%lyricsfile%"%haslyrics% -T "ALBUMARTIST=%albumartist%" -T "DISCNUMBER=%cdnumber%" -T "TOTALDISCS=%totalcds%" -T "TOTALTRACKS=%numtracks%" -T "COMMENT=%comment%" %source% -o %dest%
TOC of the extracted CD
     Track |   Start  |  Length  | Start sector | End sector
    ---------------------------------------------------------
        1  |  0:00.00 |  3:18.10 |         0    |    14859
        2  |  3:18.10 |  4:07.50 |     14860    |    33434
        3  |  7:25.60 |  4:10.09 |     33435    |    52193
        4  | 11:35.69 |  3:51.26 |     52194    |    69544
        5  | 15:27.20 |  4:12.18 |     69545    |    88462
        6  | 19:39.38 |  3:38.20 |     88463    |   104832
        7  | 23:17.58 |  3:26.00 |    104833    |   120282
        8  | 26:43.58 |  4:13.15 |    120283    |   139272
        9  | 30:56.73 |  2:51.41 |    139273    |   152138
       10  | 33:48.39 |  2:41.56 |    152139    |   164269
       11  | 36:30.20 |  3:30.49 |    164270    |   180068
       12  | 40:00.69 |  2:24.70 |    180069    |   190938
       13  | 42:25.64 |  3:02.25 |    190939    |   204613
       14  | 45:28.14 |  3:44.12 |    204614    |   221425
       15  | 49:12.26 |  4:07.24 |    221426    |   239974
       16  | 53:19.50 |  3:54.41 |    239975    |   257565
       17  | 57:14.16 |  3:53.32 |    257566    |   275072
       18  | 61:07.48 |  3:13.65 |    275073    |   289612
       19  | 64:21.38 |  3:25.06 |    289613    |   304993
       20  | 67:46.44 |  2:49.40 |    304994    |   317708
Track  1
     Filename E:\CDRips\01 - Space (UK) - Female Of The Species [1996].wav
     Pre-gap length  0:00:02.00
     Peak level 99.4 %
     Extraction speed 2.2 X
     Track quality 100.0 %
     Test CRC AE167C15
     Copy CRC AE167C15
     Track not present in AccurateRip database
     Copy OK
Track  2
     Filename E:\CDRips\02 - Suede - Trash [1996].wav
     Pre-gap length  0:00:01.80
     Peak level 85.6 %
     Extraction speed 2.0 X
     Track quality 99.9 %
     Test CRC D48D5031
     Copy CRC D48D5031
     Track not present in AccurateRip database
     Copy OK
Track  3
     Filename E:\CDRips\03 - T-Rex - Ballrooms Of Mars [1972].wav
     Pre-gap length  0:00:01.80
     Peak level 99.4 %
     Extraction speed 2.7 X
     Track quality 100.0 %
     Test CRC 0BF7C3CA
     Copy CRC 0BF7C3CA
     Track not present in AccurateRip database
     Copy OK
Track  4
     Filename E:\CDRips\04 - Byrds - Turn Turn Turn [1965].wav
     Pre-gap length  0:00:01.80
     Peak level 99.4 %
     Extraction speed 2.8 X
     Track quality 100.0 %
     Test CRC 824796F9
     Copy CRC 824796F9
     Track not present in AccurateRip database
     Copy OK
Track  5
     Filename E:\CDRips\05 - Psychedelic Furs - Pretty In Pink [1981].wav
     Pre-gap length  0:00:01.80
     Peak level 94.2 %
     Extraction speed 3.0 X
     Track quality 100.0 %
     Test CRC CF39EBBA
     Copy CRC CF39EBBA
     Track not present in AccurateRip database
     Copy OK
Track  6
     Filename E:\CDRips\06 - Train - Hey Soul Sister [2009].wav
     Pre-gap length  0:00:01.80
     Peak level 97.1 %
     Extraction speed 3.1 X
     Track quality 100.0 %
     Test CRC 816B7F56
     Copy CRC 816B7F56
     Track not present in AccurateRip database
     Copy OK
Track  7
     Filename E:\CDRips\07 - Calling - Wherever You Will Go [2001].wav
     Pre-gap length  0:00:01.80
     Peak level 99.4 %
     Extraction speed 3.2 X
     Track quality 100.0 %
     Test CRC C2C22D5A
     Copy CRC C2C22D5A
     Track not present in AccurateRip database
     Copy OK
Track  8
     Filename E:\CDRips\08 - Savage Garden - Truly Madly Deeply [1997].wav
     Pre-gap length  0:00:01.80
     Peak level 99.4 %
     Extraction speed 3.5 X
     Track quality 100.0 %
     Test CRC 196D9A04
     Copy CRC 196D9A04
     Track not present in AccurateRip database
     Copy OK
Track  9
     Filename E:\CDRips\09 - Wannadies - You And Me Song [1994].wav
     Pre-gap length  0:00:01.80
     Peak level 99.4 %
     Extraction speed 3.4 X
     Track quality 100.0 %
     Test CRC 5A76313F
     Copy CRC 5A76313F
     Track not present in AccurateRip database
     Copy OK
Track 10
     Filename E:\CDRips\10 - Lovin' Spoonful - Summer In The City [1966].wav
     Pre-gap length  0:00:01.80
     Peak level 92.7 %
     Extraction speed 3.4 X
     Track quality 100.0 %
     Test CRC 45A7CA57
     Copy CRC 45A7CA57
     Track not present in AccurateRip database
     Copy OK
Track 11
     Filename E:\CDRips\11 - Mott The Hoople - All The Young Dudes [1972].wav
     Pre-gap length  0:00:01.80
     Peak level 96.0 %
     Extraction speed 3.7 X
     Track quality 100.0 %
     Test CRC E3A47BA5
     Copy CRC E3A47BA5
     Track not present in AccurateRip database
     Copy OK
Track 12
     Filename E:\CDRips\12 - Yardbirds - Over Under Sideways Down [1966].wav
     Pre-gap length  0:00:01.80
     Peak level 99.4 %
     Extraction speed 3.5 X
     Track quality 100.0 %
     Test CRC A31A1C3C
     Copy CRC A31A1C3C
     Track not present in AccurateRip database
     Copy OK
Track 13
     Filename E:\CDRips\13 - Dead Or Alive - You Spin Me Round (Like A Record) [1984].wav
     Pre-gap length  0:00:01.80
     Peak level 99.4 %
     Extraction speed 3.7 X
     Track quality 100.0 %
     Test CRC D4EC4500
     Copy CRC D4EC4500
     Track not present in AccurateRip database
     Copy OK
Track 14
     Filename E:\CDRips\14 - Ian Dury & The Blockheads - Hit Me With Your Rhythm Stick [1978].wav
     Pre-gap length  0:00:01.80
     Peak level 99.4 %
     Extraction speed 4.0 X
     Track quality 100.0 %
     Test CRC A1DF7F36
     Copy CRC A1DF7F36
     Track not present in AccurateRip database
     Copy OK
Track 15
     Filename E:\CDRips\15 - Survivor - Eye Of The Tiger [1982].wav
     Pre-gap length  0:00:01.80
     Peak level 99.4 %
     Extraction speed 3.3 X
     Track quality 99.9 %
     Test CRC FF7F3786
     Copy CRC FF7F3786
     Track not present in AccurateRip database
     Copy OK
Track 16
     Filename E:\CDRips\16 - Belinda Carlisle - Heaven Is A Place On Earth [1987].wav
     Pre-gap length  0:00:01.80
     Peak level 90.6 %
     Extraction speed 4.2 X
     Track quality 100.0 %
     Test CRC 403361F7
     Copy CRC 403361F7
     Track not present in AccurateRip database
     Copy OK
Track 17
     Filename E:\CDRips\17 - Cyndi Lauper - Time After Time [1983].wav
     Pre-gap length  0:00:01.80
     Peak level 99.4 %
     Extraction speed 4.3 X
     Track quality 100.0 %
     Test CRC 77FE3E0F
     Copy CRC 77FE3E0F
     Track not present in AccurateRip database
     Copy OK
Track 18
     Filename E:\CDRips\18 - Andy Williams - Can't Take My Eyes Off You [1967].wav
     Pre-gap length  0:00:01.80
     Peak level 99.4 %
     Extraction speed 3.3 X
     Track quality 99.9 %
     Test CRC CCAC0744
     Copy CRC CCAC0744
     Track not present in AccurateRip database
     Copy OK
Track 19
     Filename E:\CDRips\19 - Tony Bennett - The Way You Look Tonight [1958].wav
     Pre-gap length  0:00:01.80
     Peak level 99.4 %
     Extraction speed 4.4 X
     Track quality 100.0 %
     Test CRC 6A0D9108
     Copy CRC 6A0D9108
     Track not present in AccurateRip database
     Copy OK
Track 20
     Filename E:\CDRips\20 - Bobby Vinton - Blue Velvet [1963].wav
     Pre-gap length  0:00:01.80
     Peak level 99.4 %
     Extraction speed 3.9 X
     Track quality 100.0 %
     Test CRC EAB44104
     Copy CRC EAB44104
     Track not present in AccurateRip database
     Copy OK
None of the tracks are present in the AccurateRip database
No errors occurred
End of status report
---- CUETools DB Plugin V2.1.3
[CTDB TOCID: vPB48Ij5tKAy.OLmmr9hXdknZ5Y-] disk not present in database, Submit result: vPB48Ij5tKAy.OLmmr9hXdknZ5Y- has been uploaded
==== Log checksum 3EE18EB8E3FD868E6C7913DF257B2AAFF3AC7F6049E1D8DF81EBCE80C1093F24 ====

Отчёт auCDtect Task manager:

-----------------------
DON'T MODIFY THIS FILE
-----------------------
PERFORMER: auCDtect Task Manager, ver. 1.6.0 RC1 build 1.6.0.1
Copyright (c) 2008-2010 y-soft. All rights reserved
http://y-soft.org
ANALYZER: auCDtect: CD records authenticity detector, version 0.8.2
Copyright (c) 2004 Oleg Berngardt. All rights reserved.
Copyright (c) 2004 Alexander Djourik. All rights reserved.
FILE: 20 - Bobby Vinton - Blue Velvet [1963].flac
  Size: 17857457 Hash: 8A2E332A226C789AEB89CC44C6C9060C Accuracy: -m0
  Conclusion: CDDA 100%
  Signature: 4BB4ADDB3E71237F4961BFCB0AA3458CB124CC86
FILE: 19 - Tony Bennett - The Way You Look Tonight [1958].flac
  Size: 20617576 Hash: 5646CFEF1EE74D85627A3F8720D381E5 Accuracy: -m0
  Conclusion: CDDA 99%
  Signature: 7C3CDCEF617BA878F6985D12BF9F4DBA2760A426
FILE: 18 - Andy Williams - Can't Take My Eyes Off You [1967].flac
  Size: 21932776 Hash: B6AA46DFF3AA850F9AD0AC39E08B8892 Accuracy: -m0
  Conclusion: CDDA 100%
  Signature: A565E29CDF894D490B21CB23FC5B7749B3A47696
FILE: 17 - Cyndi Lauper - Time After Time [1983].flac
  Size: 22167252 Hash: 82E965B962230C97407F3ABA1CFC5339 Accuracy: -m0
  Conclusion: MPEG 95%
  Signature: 34738A2AE7B1050CEFE65E0F9F8AED09A590032D
FILE: 16 - Belinda Carlisle - Heaven Is A Place On Earth [1987].flac
  Size: 30700351 Hash: F83C4C565A122AE5D26E381D3E2918AD Accuracy: -m0
  Conclusion: CDDA 100%
  Signature: AD2B9C2BC2791B1248846FB3508D5144D0A398E4
FILE: 15 - Survivor - Eye Of The Tiger [1982].flac
  Size: 30595733 Hash: 2E33F8A39C56EF9C4E83C7CCF9E9D509 Accuracy: -m0
  Conclusion: CDDA 92%
  Signature: 4B0F6C67AC913CA6AE3C781A1717252CE7DE10F2
FILE: 14 - Ian Dury & The Blockheads - Hit Me With Your Rhythm Stick [1978].flac
  Size: 28931568 Hash: AEDD1748706BD16144F7016366EB2577 Accuracy: -m0
  Conclusion: CDDA 99%
  Signature: 57195266F2DACC3C804C343EE23D39273BAE66BC
FILE: 13 - Dead Or Alive - You Spin Me Round (Like A Record) [1984].flac
  Size: 23707554 Hash: 7BD1F912FB4BBDD304DF1C8A6DDB2E7E Accuracy: -m0
  Conclusion: CDDA 100%
  Signature: 579747C9F9C5D211E34431048B4C1B687C7195CC
FILE: 12 - Yardbirds - Over Under Sideways Down [1966].flac
  Size: 14324664 Hash: 752C41D617EE590D17D3C01398CC4329 Accuracy: -m0
  Conclusion: CDDA 100%
  Signature: A86DA8564FF34014FA7CD6CD17ACC7105E9DB3FB
FILE: 11 - Mott The Hoople - All The Young Dudes [1972].flac
  Size: 26695496 Hash: 138D1B26697A9B40EDFA8748A9356F50 Accuracy: -m0
  Conclusion: CDDA 100%
  Signature: 9A2F1E11111004CBFA4B67F16B5477C0EE2B2465
FILE: 10 - Lovin' Spoonful - Summer In The City [1966].flac
  Size: 18323859 Hash: A0E091838D6D27811106FBB81AB19AD6 Accuracy: -m0
  Conclusion: CDDA 100%
  Signature: DA90082AF48905DCEFEE68AD122699E93C6A267A
FILE: 09 - Wannadies - You And Me Song [1994].flac
  Size: 21533961 Hash: C04308504CC2C74BF4CEA8D58FBF1506 Accuracy: -m0
  Conclusion: CDDA 100%
  Signature: CAF95CE7D3ACB6B55F587F9C4EEC79BD5DADEA78
FILE: 08 - Savage Garden - Truly Madly Deeply [1997].flac
  Size: 30684606 Hash: 05E42A41BB60CE8823788A7F834E7A4D Accuracy: -m0
  Conclusion: CDDA 100%
  Signature: 14A9B60F71C75647611EA44874EBB5B8E7463039
FILE: 07 - Calling - Wherever You Will Go [2001].flac
  Size: 25776951 Hash: 519F89AA3819D50DA7F37A36A2475963 Accuracy: -m0
  Conclusion: MPEG 95%
  Signature: 9C8BC8DE513CD5B6097399CDFF186F0F6DE19677
FILE: 06 - Train - Hey Soul Sister [2009].flac
  Size: 27039034 Hash: 3214E48AA8C7F5DC6AF844076CAD591F Accuracy: -m0
  Conclusion: CDDA 100%
  Signature: B2E75E1D721F04CB9471FD5D86A43AE4AAD85B28
FILE: 05 - Psychedelic Furs - Pretty In Pink [1981].flac
  Size: 32379776 Hash: 609DA65B09D3653CA5949433EE6700A0 Accuracy: -m0
  Conclusion: CDDA 100%
  Signature: 0C24248C60F87912640A78C363116B581FF92332
FILE: 04 - Byrds - Turn Turn Turn [1965].flac
  Size: 25069114 Hash: E41D42F8E3B50597F035837F7E2DBAAE Accuracy: -m0
  Conclusion: CDDA 100%
  Signature: 972E2EEC5DF65DA73970CC693125E11326715190
FILE: 03 - T-Rex - Ballrooms Of Mars [1972].flac
  Size: 32660728 Hash: 9F68908F86D02D1B70BBC1ECE5DC084C Accuracy: -m0
  Conclusion: CDDA 100%
  Signature: 758BA2FE2C2BEEA8CE0778B98A239D1D34924D87
FILE: 02 - Suede - Trash [1996].flac
  Size: 33467515 Hash: 7A933737B5F88C7A6D4F09B67C934B3F Accuracy: -m0
  Conclusion: CDDA 100%
  Signature: 69CF7692C5828B131A647631BCBDE41A34302D1B
FILE: 01 - Space (UK) - Female Of The Species [1996].flac
  Size: 23315971 Hash: A0AA869B15FB21E3A44DD061FF07A623 Accuracy: -m0
  Conclusion: CDDA 100%
  Signature: 41C48129FC2127234B013E836D8C0EB1846E42CD

Спектрограмма:

[small.torrnada.com].t106682.torrent
Торрент: Зарегистрирован   [ 2015-07-20 08:25 ] · 914E506DC87F1A2FB8FBE2D378C03FA9BDF06FBB

Скачать .torrent

Скачать

24 KB

Статус: проверено
Скачан: 30 раз
Размер: 978 MB
Оценка:  5 (Голосов: 1) Ваша оценка: 5
Поблагодарили: 0  Спасибо
Поделится:

Топик был перенесен из форума Pop/Dance в форум Сборники зарубежной поп музыки
Magnat


Показать сообщения:    

Текущее время: 26-Май 14:50

Часовой пояс: UTC + 3


Вы не можете начинать темы
Вы не можете отвечать на сообщения
Вы не можете редактировать свои сообщения
Вы не можете удалять свои сообщения
Вы не можете голосовать в опросах
Вы не можете прикреплять файлы к сообщениям
Вы можете скачивать файлы

!ВНИМАНИЕ!
Сайт не предоставляет электронные версии произведений, а занимается лишь коллекционированием и каталогизацией ссылок, присылаемых и публикуемых на форуме нашими читателями. Если вы являетесь правообладателем какого-либо представленного материала и не желаете, чтобы ссылка на него находилась в нашем каталоге, свяжитесь с нами, и мы незамедлительно удалим ее. Файлы для обмена на трекере предоставлены пользователями сайта, и администрация не несет ответственности за их содержание. Просьба не заливать файлы, защищенные авторскими правами, а также файлы нелегального содержания!