۩ ‼ Вы находитесь на Бесплатном торрент-трекере TORRNADA.com ۩ Зарегистрируйтесь для получения полного доступа ко всем функциям сайта ! ۩ После регистрации подпишитесь на нашу рассылку в своём профиле ۩
Auto Web Pinger

 

[Цитировать]

Пылающие мертвецы / The Burning Dead (2015) BDRip [H.264/720p] [EN]
- Производство: США, Millman Productions and Ancona Films.
Жанр: ужасы
Режиссер: Рене Перез
Актеры: Дэнни Трехо, Томас Дауни, Моника Планте, Николь Камминс, Кевин Норман, Роберт Ф. Лайонс, Кайл Т. Хеффнер, Джулия Леман, Том Нэйджел, Дженни Лин, Адам Грегор, Роберт Амстлер
Описание:
Шериф по прозвищу Ночной Волк, должен спасти одинокую семью от надвигающегося извержения вулкана, одновременно отбивая орду заполненных лавой зомби, приведенных в чувство проклятыми горами.

Продолжительность: 01:22:25
Качество видео: BDRip [H.264/720p]
Перевод: Отсутствует
Язык озвучки: Английский
Видео: AVC, 1280x720 (16:9), 4174 kbps, 23,976 fps, 0,189 bpp
Аудио: английский / DTS / 5.1 / 48 kHz / 1510 kbps / 16 bit

MediaInfo

General
Unique ID
Complete name                           The Burning Dead.720p.mkv
Format                                   : Matroska
Format version                           : Version 4 / Version 2
File size                                : 3.27 GiB
Duration                                 : 1h 22mn
Overall bit rate                         : 5 681 Kbps
Encoded date                             : UTC 2015-07-18 16:54:21
Writing application                      : mkvmerge v7.3.0 ('Nouages') 64bit built on Oct 22 2014 18:53:34
Writing library                          : libebml v1.3.0 + libmatroska v1.4.1
DURATION                                 : 01:22:25.526000000
NUMBER_OF_FRAMES                         : 463643
NUMBER_OF_BYTES                          : 932849784
_STATISTICS_WRITING_APP                  : mkvmerge v7.3.0 ('Nouages') 64bit built on Oct 22 2014 18:53:34
_STATISTICS_WRITING_DATE_UTC             : 2015-07-18 16:54:21
_STATISTICS_TAGS                         : BPS DURATION NUMBER_OF_FRAMES NUMBER_OF_BYTES
Video
ID                                       : 1
Format                                   : AVC
Format/Info                              : Advanced Video Codec
Format profile                           : High@L4.1
Format settings, CABAC                   : Yes
Format settings, ReFrames                : 5 frames
Codec ID                                 : V_MPEG4/ISO/AVC
Duration                                 : 1h 22mn
Bit rate                                 : 4 174 Kbps
Width                                    : 1 280 pixels
Height                                   : 720 pixels
Display aspect ratio                     : 16:9
Frame rate                               : 23.976 fps
Color space                              : YUV
Chroma subsampling                       : 4:2:0
Bit depth                                : 8 bits
Scan type                                : Progressive
Bits/(Pixel*Frame)                       : 0.189
Stream size                              : 2.34 GiB (71%)
Writing library                          : x264 core 144 r2525 40bb568
Encoding settings                        : cabac=1 / ref=5 / deblock=1:1:1 / analyse=0x3:0x133 / me=umh / subme=8 / psy=1 / psy_rd=1.00:0.00 / mixed_ref=1 / me_range=16 / chroma_me=1 / trellis=1 / 8x8dct=1 / cqm=0 / deadzone=21,11 / fast_pskip=0 / chroma_qp_offset=-2 / threads=18 / lookahead_threads=3 / sliced_threads=0 / nr=0 / decimate=1 / interlaced=0 / bluray_compat=0 / constrained_intra=0 / bframes=3 / b_pyramid=2 / b_adapt=2 / b_bias=0 / direct=3 / weightb=1 / open_gop=0 / weightp=2 / keyint=240 / keyint_min=23 / scenecut=40 / intra_refresh=0 / rc_lookahead=50 / rc=2pass / mbtree=1 / bitrate=4174 / ratetol=1.0 / qcomp=0.60 / qpmin=0 / qpmax=69 / qpstep=4 / cplxblur=20.0 / qblur=0.5 / ip_ratio=1.40 / aq=1:1.00
Language                                 : English
Default                                  : Yes
Forced                                   : No
DURATION                                 : 01:22:25.733000000
NUMBER_OF_FRAMES                         : 118579
NUMBER_OF_BYTES                          : 2577817271
_STATISTICS_WRITING_APP                  : mkvmerge v7.3.0 ('Nouages') 64bit built on Oct 22 2014 18:53:34
_STATISTICS_WRITING_DATE_UTC             : 2015-07-18 16:54:21
_STATISTICS_TAGS                         : BPS DURATION NUMBER_OF_FRAMES NUMBER_OF_BYTES
Audio
ID                                       : 2
Format                                   : DTS
Format/Info                              : Digital Theater Systems
Codec ID                                 : A_DTS
Duration                                 : 1h 22mn
Bit rate mode                            : Constant
Bit rate                                 : 1 510 Kbps
Channel(s)                               : 6 channels
Channel positions                        : Front: L C R, Side: L R, LFE
Sampling rate                            : 48.0 KHz
Bit depth                                : 16 bits
Compression mode                         : Lossy
Stream size                              : 890 MiB (27%)
Language                                 : English
Default                                  : Yes
Forced                                   : No
Menu
00:00:00.000                             : en:00:00:00.000
00:07:21.441                             : en:00:07:21.441
00:17:31.341                             : en:00:17:31.341
00:26:33.967                             : en:00:26:33.967
00:33:15.994                             : en:00:33:15.994
00:40:32.847                             : en:00:40:32.847
00:47:28.178                             : en:00:47:28.178
00:53:23.450                             : en:00:53:23.450
01:00:15.820                             : en:01:00:15.820
01:04:53.014                             : en:01:04:53.014
01:10:50.120                             : en:01:10:50.120
01:17:45.077                             : en:01:17:45.077
-Скриншоты:
Время раздачи: с 13:00 до 23:00


Показать сообщения:    

Текущее время: 22-Авг 14:35

Часовой пояс: UTC + 3


Вы не можете начинать темы
Вы не можете отвечать на сообщения
Вы не можете редактировать свои сообщения
Вы не можете удалять свои сообщения
Вы не можете голосовать в опросах
Вы не можете прикреплять файлы к сообщениям
Вы не можете скачивать файлы

!ВНИМАНИЕ!
Сайт не предоставляет электронные версии произведений, а занимается лишь коллекционированием и каталогизацией ссылок, присылаемых и публикуемых на форуме нашими читателями. Если вы являетесь правообладателем какого-либо представленного материала и не желаете, чтобы ссылка на него находилась в нашем каталоге, свяжитесь с нами, и мы незамедлительно удалим ее. Файлы для обмена на трекере предоставлены пользователями сайта, и администрация не несет ответственности за их содержание. Просьба не заливать файлы, защищенные авторскими правами, а также файлы нелегального содержания!