۩ ‼ Вы находитесь на Бесплатном торрент-трекере TORRNADA.com ۩ Зарегистрируйтесь для получения полного доступа ко всем функциям сайта ! ۩ После регистрации подпишитесь на нашу рассылку в своём профиле ۩
Auto Web Pinger

 

[Цитировать]

Слепая / Blind (2014) BDRip [H.264/1080p] [No]
- Производство: Норвегия, Lemming Film, Motlys.
Жанр: драма
Режиссер: Эскиль Вогт
Актеры:
Эллен Доррит Петерсен, Хенрик Рафаелсен, Вера Виталий, Стелла Квам Янг, Айзек Николай Мюллер, Джейкоб Янг, Никки Бутеншен, Ирли Киллингмарк, Фредрик Сандахл, Аслаг Гуттормсгаард
Описание:
Ингрид недавно потеряла зрение, что для писательницы означает лишиться основного инструмента работы. Женщина замкнулась в себе и не выходит из дома, который считает безопасным, в отличие от остального мира. Единственным человеком, с которым слепая общается — это ее муж. Мучительно долгие дни в полной темноте пробуждают в сознании женщины глубокие и тайные страхи, рождают странные фантазии и желания. Норвежская драма Эскиля Вогта «Слепая» участвовал в панораме 64-ого Берлинского международного кинофестиваля.

Продолжительность: 01:35:58
Качество видео: BDRip [H.264/1080p]
Перевод: Отсутствует
Язык озвучки: Норвежский
Видео: AVC, 1920x1040 (16:9), 21309 kbps, 24 fps, 0,445 bpp
Аудио: Норвежский / AC3 / 5.1 / 48 kHz / 640 kbps / 16 bit

MediaInfo

General
Unique ID
Complete name                         Blind.1080p.mkv
Format                                   : Matroska
Format version                           : Version 2
File size                                : 15.0 GiB
Duration                                 : 1h 35mn
Overall bit rate                         : 22.4 Mbps
Encoded date                             : UTC 2015-07-17 06:21:34
Writing application                      : mkvmerge v5.8.0 ('No Sleep / Pillow') built on Sep  2 2012 15:37:04
Writing library                          : libebml v1.2.3 + libmatroska v1.3.0
Video
ID                                       : 1
Format                                   : AVC
Format/Info                              : Advanced Video Codec
Format profile                           : High@L4.1
Format settings, CABAC                   : Yes
Format settings, ReFrames                : 4 frames
Muxing mode                              : Header stripping
Codec ID                                 : V_MPEG4/ISO/AVC
Duration                                 : 1h 35mn
Bit rate                                 : 21.3 Mbps
Width                                    : 1 920 pixels
Height                                   : 1 040 pixels
Display aspect ratio                     : 16:9
Frame rate                               : 24.000 fps
Color space                              : YUV
Chroma subsampling                       : 4:2:0
Bit depth                                : 8 bits
Scan type                                : Progressive
Bits/(Pixel*Frame)                       : 0.445
Stream size                              : 14.3 GiB (95%)
Writing library                          : x264 core 146 r2538 121396c
Encoding settings                        : cabac=1 / ref=4 / deblock=1:-3:-3 / analyse=0x3:0x133 / me=umh / subme=10 / psy=1 / psy_rd=1.10:0.00 / mixed_ref=1 / me_range=32 / chroma_me=1 / trellis=2 / 8x8dct=1 / cqm=0 / deadzone=21,11 / fast_pskip=0 / chroma_qp_offset=-2 / threads=12 / lookahead_threads=2 / sliced_threads=0 / nr=0 / decimate=0 / interlaced=0 / bluray_compat=0 / constrained_intra=0 / bframes=9 / b_pyramid=2 / b_adapt=2 / b_bias=0 / direct=3 / weightb=1 / open_gop=0 / weightp=2 / keyint=250 / keyint_min=24 / scenecut=40 / intra_refresh=0 / rc=crf / mbtree=0 / crf=18.5 / qcomp=0.60 / qpmin=0 / qpmax=69 / qpstep=4 / ip_ratio=1.40 / pb_ratio=1.30 / aq=1:0.60
Language                                 : English
Default                                  : Yes
Forced                                   : No
Audio
ID                                       : 2
Format                                   : AC-3
Format/Info                              : Audio Coding 3
Mode extension                           : CM (complete main)
Muxing mode                              : Header stripping
Codec ID                                 : A_AC3
Duration                                 : 1h 35mn
Bit rate mode                            : Constant
Bit rate                                 : 640 Kbps
Channel(s)                               : 6 channels
Channel positions                        : Front: L C R, Side: L R, LFE
Sampling rate                            : 48.0 KHz
Bit depth                                : 16 bits
Compression mode                         : Lossy
Stream size                              : 439 MiB (3%)
Title                                    : Norwegian
Language                                 : Norwegian Nynorsk
Default                                  : Yes
Forced                                   : No
Menu
00:00:00.000                             : en:00:00:00.000
00:07:04.917                             : en:00:07:04.917
00:12:07.667                             : en:00:12:07.667
00:20:27.000                             : en:00:20:27.000
00:27:41.000                             : en:00:27:41.000
00:35:42.083                             : en:00:35:42.083
00:46:13.875                             : en:00:46:13.875
00:54:03.000                             : en:00:54:03.000
01:03:00.667                             : en:01:03:00.667
01:10:03.500                             : en:01:10:03.500
01:16:46.417                             : en:01:16:46.417
01:24:32.000                             : en:01:24:32.000
01:31:02.000                             : en:01:31:02.000
-Скриншоты:
Время раздачи: с 13:00 до 23:00


Показать сообщения:    

Текущее время: 26-Май 14:55

Часовой пояс: UTC + 3


Вы не можете начинать темы
Вы не можете отвечать на сообщения
Вы не можете редактировать свои сообщения
Вы не можете удалять свои сообщения
Вы не можете голосовать в опросах
Вы не можете прикреплять файлы к сообщениям
Вы не можете скачивать файлы

!ВНИМАНИЕ!
Сайт не предоставляет электронные версии произведений, а занимается лишь коллекционированием и каталогизацией ссылок, присылаемых и публикуемых на форуме нашими читателями. Если вы являетесь правообладателем какого-либо представленного материала и не желаете, чтобы ссылка на него находилась в нашем каталоге, свяжитесь с нами, и мы незамедлительно удалим ее. Файлы для обмена на трекере предоставлены пользователями сайта, и администрация не несет ответственности за их содержание. Просьба не заливать файлы, защищенные авторскими правами, а также файлы нелегального содержания!