۩ ‼ Вы находитесь на Бесплатном торрент-трекере TORRNADA.com ۩ Зарегистрируйтесь для получения полного доступа ко всем функциям сайта ! ۩ После регистрации подпишитесь на нашу рассылку в своём профиле ۩
Auto Web Pinger

 

[Цитировать]

Большой вопрос. Сезон 3. Выпуск 9 (2015.07.17) SATRip - Телекомпания: СТС
Жанр: Юмористическое шоу
Ведущий: Василий Уткин
Описание:
"Большой вопрос" добавляет к Юмору небольшой штрих и открывает новый телевизионный жанр – IQмористического шоу. Это единственный проект на российском телевидении, в котором можно одновременно узнать много нового и посмеяться. Это единственная телеигра, где выигрыш зависит не только от количества правильных ответов, но и от качества юмора. Что принесет победу – и есть "Большой вопрос"!
Продолжительность: 00:50:13
Качество видео: SATRip
Видео: MPEG4, XviD, 720x400 (16:9), 25.000 fps, 1 800 Kbps (0.250 bit/pixel)
Аудио: MP3, 48.0 KHz, 2 ch, 128 Kbps, CBR

Mediainfo:

Формат                                   : AVI
Формат/Информация                        : Audio Video Interleave
Размер файла                             : 719 Мбайт
Продолжительность                        : 50 м.
Общий поток                              : 2002 Кбит/сек
Программа кодирования                    : VirtualDubMod 1.5.10.3 | www.virtualdub-fr.org || (build 2550/release)
Библиотека кодирования                   : VirtualDubMod build 2550/release
Видео
Идентификатор                            : 0
Формат                                   : MPEG-4 Visual
Профиль формата                          : Advanced Simple@L5
Параметр BVOP формата                    : 2
Параметр QPel формата                    : Нет
Параметр GMC формата                     : Без точки перехода
Параметр матрицы формата                 : Default (H.263)
Идентификатор кодека                     : XVID
Идентификатор кодека/Подсказка           : XviD
Продолжительность                        : 50 м.
Битрейт                                  : 1800 Кбит/сек
Ширина                                   : 720 пикселей
Высота                                   : 400 пикселей
Соотношение сторон                       : 16:9
Частота кадров                           : 25,000 кадров/сек
Цветовое пространство                    : YUV
Субдискретизация насыщенности            : 4:2:0
Битовая глубина                          : 8 бит
Тип развёртки                            : Прогрессивная
Метод сжатия                             : С потерями
Бит/(Пиксели*Кадры)                      : 0.250
Размер потока                            : 647 Мбайт (90%)
Библиотека кодирования                   : XviD 1.2.1 (UTC 2008-12-04)
Аудио
Идентификатор                            : 1
Формат                                   : AC-3
Формат/Информация                        : Audio Coding 3
Расширение режима                        : CM (complete main)
Параметр Endianness формата              : Big
Идентификатор кодека                     : 2000
Продолжительность                        : 50 м.
Вид битрейта                             : Постоянный
Битрейт                                  : 192 Кбит/сек
Каналы                                   : 2 канала
Расположение каналов                     : Front: L R
Частота                                  : 48,0 КГц
Битовая глубина                          : 16 бит
Метод сжатия                             : С потерями
Размер потока                            : 69,0 Мбайт (10%)
Выравнивание                             : Разделение по промежуткам
Продолжительность промежутка             : 40  мс. (1,00 видеокадр)
Время предзагрузки промежутка            : 500  мс.
Скриншоты: Не жилим спасибо. Не забываем голосовать за трекер!!!


Показать сообщения:    

Текущее время: 26-Авг 06:24

Часовой пояс: UTC + 3


Вы не можете начинать темы
Вы не можете отвечать на сообщения
Вы не можете редактировать свои сообщения
Вы не можете удалять свои сообщения
Вы не можете голосовать в опросах
Вы не можете прикреплять файлы к сообщениям
Вы не можете скачивать файлы

!ВНИМАНИЕ!
Сайт не предоставляет электронные версии произведений, а занимается лишь коллекционированием и каталогизацией ссылок, присылаемых и публикуемых на форуме нашими читателями. Если вы являетесь правообладателем какого-либо представленного материала и не желаете, чтобы ссылка на него находилась в нашем каталоге, свяжитесь с нами, и мы незамедлительно удалим ее. Файлы для обмена на трекере предоставлены пользователями сайта, и администрация не несет ответственности за их содержание. Просьба не заливать файлы, защищенные авторскими правами, а также файлы нелегального содержания!