۩ ‼ Вы находитесь на Бесплатном торрент-трекере TORRNADA.com ۩ Зарегистрируйтесь для получения полного доступа ко всем функциям сайта ! ۩ После регистрации подпишитесь на нашу рассылку в своём профиле ۩
Auto Web Pinger

 

[Цитировать]

Высокий незнакомец / The Tall Stranger (1957) DVDRip [H.264] - Производство: США / Allied Artists Pictures Corporation
Жанр: Вестерн
Режиссер: Томас Карр
Актеры: Джоэл МакКри, Вирджиния Майо, Бэрри Келли, Майкл Ансара, Уит Бисселл, Джеймс Добсон, Джордж Н. Нейс, Адам Кеннеди, Майкл Пэйт, Лео Гордон
Описание:
Нэд Бэннон отправляется на поиски сводного брата Харди Бишопа, дабы прекратить многолетнюю вражду и зарыть топор войны. По пути, Нэд встречает бандитов, промышляющих воровством скота. Подстреленный в бок, он вовремя найден обозом, направляющимся в Калифорнию. Нэду удается выкарабкаться из лап смерти. Отправившись вместе с караваном в дорогу, он случайно узнает, что поселенцы держат путь в зеленую долину, принадлежавшую его враждебному брату…
Фильм снят по мотивам романа Луиса Ламура, известного под названием "Ошибка Мортона Харпера"

Продолжительность: 01:19:16
Качество видео: DVDRip
Перевод: Авторский (Ю. Медведев)
Субтитры: Отсутствуют
Видео: AVC/H.264, 720x400, 1782 Kbps
Аудио: AC3, 2 ch, 192 Kbps

Mediainfo:

General
Unique ID                                : 183355437739234698572254910418568979344 (0x89F0F9097984AF8F94393BCBFA09A390)
Complete name                            : F:\Downloads\Высокий незнакомец.mkv
Format                                   : Matroska
Format version                           : Version 4 / Version 2
File size                                : 1.09 GiB
Duration                                 : 1h 19mn
Overall bit rate                         : 1 976 Kbps
Encoded date                             : UTC 2015-07-16 22:14:32
Writing application                      : mkvmerge v7.0.0 ('Where We Going') 32bit built on Jun  9 2014 15:08:34
Writing library                          : libebml v1.3.0 + libmatroska v1.4.1
DURATION                                 : 01:19:16.864000000
NUMBER_OF_FRAMES                         : 148652
NUMBER_OF_BYTES                          : 114164736
_STATISTICS_WRITING_APP                  : mkvmerge v7.0.0 ('Where We Going') 32bit built on Jun  9 2014 15:08:34
_STATISTICS_WRITING_DATE_UTC             : 2015-07-16 22:14:32
_STATISTICS_TAGS                         : BPS DURATION NUMBER_OF_FRAMES NUMBER_OF_BYTES
Video
ID                                       : 1
Format                                   : AVC
Format/Info                              : Advanced Video Codec
Format profile                           : High@L3.1
Format settings, CABAC                   : Yes
Format settings, ReFrames                : 8 frames
Codec ID                                 : V_MPEG4/ISO/AVC
Duration                                 : 1h 19mn
Bit rate                                 : 1 782 Kbps
Width                                    : 720 pixels
Height                                   : 400 pixels
Display aspect ratio                     : 16:9
Frame rate mode                          : Constant
Frame rate                               : 25.000 fps
Color space                              : YUV
Chroma subsampling                       : 4:2:0
Bit depth                                : 8 bits
Scan type                                : Progressive
Bits/(Pixel*Frame)                       : 0.248
Stream size                              : 989 MiB (88%)
Title                                    : The Tall Stranger
Writing library                          : x264 core 125 r2208 d9d2288
Encoding settings                        : cabac=1 / ref=8 / deblock=1:-1:-1 / analyse=0x3:0x133 / me=umh / subme=9 / psy=1 / psy_rd=1.00:0.10 / mixed_ref=1 / me_range=32 / chroma_me=1 / trellis=2 / 8x8dct=1 / cqm=0 / deadzone=21,11 / fast_pskip=0 / chroma_qp_offset=-3 / threads=6 / lookahead_threads=1 / sliced_threads=0 / nr=0 / decimate=1 / interlaced=0 / bluray_compat=0 / constrained_intra=0 / bframes=3 / b_pyramid=2 / b_adapt=2 / b_bias=0 / direct=3 / weightb=1 / open_gop=0 / weightp=2 / keyint=250 / keyint_min=25 / scenecut=40 / intra_refresh=0 / rc_lookahead=60 / rc=2pass / mbtree=1 / bitrate=1782 / ratetol=1.0 / qcomp=0.60 / qpmin=0 / qpmax=69 / qpstep=4 / cplxblur=20.0 / qblur=0.5 / ip_ratio=1.40 / aq=1:1.00
Language                                 : English
Default                                  : Yes
Forced                                   : No
Audio
ID                                       : 2
Format                                   : AC-3
Format/Info                              : Audio Coding 3
Mode extension                           : CM (complete main)
Format settings, Endianness              : Big
Codec ID                                 : A_AC3
Duration                                 : 1h 19mn
Bit rate mode                            : Constant
Bit rate                                 : 192 Kbps
Channel(s)                               : 2 channels
Channel positions                        : Front: L R
Sampling rate                            : 48.0 KHz
Bit depth                                : 16 bits
Compression mode                         : Lossy
Stream size                              : 109 MiB (10%)
Title                                    : Авторский, Юрий Медведев
Language                                 : Russian
Default                                  : Yes
Forced                                   : No
Скриншоты:

Дополнительные скриншоты:



Показать сообщения:    

Текущее время: 27-Май 16:11

Часовой пояс: UTC + 3


Вы не можете начинать темы
Вы не можете отвечать на сообщения
Вы не можете редактировать свои сообщения
Вы не можете удалять свои сообщения
Вы не можете голосовать в опросах
Вы не можете прикреплять файлы к сообщениям
Вы не можете скачивать файлы

!ВНИМАНИЕ!
Сайт не предоставляет электронные версии произведений, а занимается лишь коллекционированием и каталогизацией ссылок, присылаемых и публикуемых на форуме нашими читателями. Если вы являетесь правообладателем какого-либо представленного материала и не желаете, чтобы ссылка на него находилась в нашем каталоге, свяжитесь с нами, и мы незамедлительно удалим ее. Файлы для обмена на трекере предоставлены пользователями сайта, и администрация не несет ответственности за их содержание. Просьба не заливать файлы, защищенные авторскими правами, а также файлы нелегального содержания!