۩ ‼ Вы находитесь на Бесплатном торрент-трекере TORRNADA.com ۩ Зарегистрируйтесь для получения полного доступа ко всем функциям сайта ! ۩ После регистрации подпишитесь на нашу рассылку в своём профиле ۩
Auto Web Pinger

 

[Цитировать]

Ребятня / The Expendables- Производство: США, Россия
Жанр: Пародия, Боевик, Комедия.
Режиссер: Сильвестр Сталлоне
Актеры: Сильвестр Сталлоне, Джейсон Стэтхэм, Джет Ли, Дольф Лундгрен, Эрик Робертс, Рэнди Кутюр, Стив Остин, Дэвид Зайас, Жизель Итье, Харизма Карпентер.
Описание:
Отряд профессиональных наёмников и отчаянных парней во главе с Барни Россом получает непростое задание — любой ценой найти и уничтожить кровавого тирана-диктатора, нагнетающего страх на мирное население и сеющего хаос в южноамериканской стране.
Продолжительность: 01:45:18
Качество видео: DVDRip
Перевод: Одноголосый закадровый - SER6630
Примечание: В фильме присутствует ненормативная лексика!
Субтитры: Отсутствуют
Видео: DivX 5, 720x304, 700 Kbps
Аудио: MP3, 2 ch, 192 Kbps
Семпл: Скачать

Mediainfo:

Общее
Полное имя                               : G:\torrnada(Раздачи)\Фильмы\Фильмы со смешным переводом (пародии)\Rebyatnya.avi
Формат                                   : AVI
Формат/Информация                        : Audio Video Interleave
Размер файла                             : 681 Мбайт
Продолжительность                        : 1 ч. 45 м.
Общий поток                              : 904 Кбит/сек
Видео
Идентификатор                            : 0
Формат                                   : MPEG-4 Visual
Параметр BVOP формата                    : 2
Параметр QPel формата                    : Нет
Параметр GMC формата                     : Без точки перехода
Параметр матрицы формата                 : Default (H.263)
Режим смешивания                         : Сжатый битовый поток
Идентификатор кодека                     : DX50
Идентификатор кодека/Подсказка           : DivX 5
Продолжительность                        : 1 ч. 45 м.
Битрейт                                  : 700 Кбит/сек
Ширина                                   : 720 пикселей
Высота                                   : 304 пикселя
Соотношение сторон                       : 2,35:1
Частота кадров                           : 30,000 кадров/сек
Цветовое пространство                    : YUV
Субдискретизация насыщенности            : 4:2:0
Битовая глубина                          : 8 бит
Тип развёртки                            : Прогрессивная
Метод сжатия                             : С потерями
Бит/(Пиксели*Кадры)                      : 0.107
Размер потока                            : 528 Мбайт (77%)
Библиотека кодирования                   : DivX 6.8.0 (UTC 2007-12-04)
Аудио
Идентификатор                            : 1
Формат                                   : MPEG Audio
Версия формата                           : Version 1
Профиль формата                          : Layer 3
Идентификатор кодека                     : 55
Идентификатор кодека/Подсказка           : MP3
Продолжительность                        : 1 ч. 45 м.
Вид битрейта                             : Постоянный
Битрейт                                  : 192 Кбит/сек
Каналы                                   : 2 канала
Частота                                  : 44,1 КГц
Метод сжатия                             : С потерями
Размер потока                            : 145 Мбайт (21%)
Выравнивание                             : Разделение по промежуткам
Продолжительность промежутка             : 33  мс. (1,00 видеокадр)
Библиотека кодирования                   : LAMELAME_MAJOR_VERSI
Скриншоты:
Время раздачи: c 11:00 до 01:00

[Цитировать]

Прикольные фильмы за счет перевода. Спасибо. ag


Показать сообщения:    

Текущее время: 27-Май 16:11

Часовой пояс: UTC + 3


Вы не можете начинать темы
Вы не можете отвечать на сообщения
Вы не можете редактировать свои сообщения
Вы не можете удалять свои сообщения
Вы не можете голосовать в опросах
Вы не можете прикреплять файлы к сообщениям
Вы не можете скачивать файлы

!ВНИМАНИЕ!
Сайт не предоставляет электронные версии произведений, а занимается лишь коллекционированием и каталогизацией ссылок, присылаемых и публикуемых на форуме нашими читателями. Если вы являетесь правообладателем какого-либо представленного материала и не желаете, чтобы ссылка на него находилась в нашем каталоге, свяжитесь с нами, и мы незамедлительно удалим ее. Файлы для обмена на трекере предоставлены пользователями сайта, и администрация не несет ответственности за их содержание. Просьба не заливать файлы, защищенные авторскими правами, а также файлы нелегального содержания!