۩ ‼ Вы находитесь на Бесплатном торрент-трекере TORRNADA.com ۩ Зарегистрируйтесь для получения полного доступа ко всем функциям сайта ! ۩ После регистрации подпишитесь на нашу рассылку в своём профиле ۩
Auto Web Pinger

 

[Цитировать]

Гангста Love / Rob the Mob
Страна: США
Год выпуска: 2014
Жанр: драма, криминал
Продолжительность: 01:44:12
Перевод: Профессиональный (полное дублирование) Лицензия
Режиссер: Рэймонд Де Фелитта / Raymond De Felitta
Актеры: Майкл Питт, Нина Арианда, Энди Гарсиа, Рэй Романо, Гриффин Данн, Майкл Рисполи, Юл Васкес, Фрэнк Уэйли, Брайан Тарантина, Аида Туртурро
Роли дублировали: Антон Савенков, Жанна Никонова, Станислав Стрелков, Александр Белый, Александр Воронов
Описание фильма: Парочка молодых влюбленных, мечтая скопить деньги на свадьбу, решает совершить серию дерзких ограблений клубов, где собираются мафиози. Их план прост — чтобы они ни натворили, мафия не будет жаловаться в полицию. Местные «братаны» не могут поверить своим глазам, когда их обчищают до нитки какие-то «сопляки». Больше того, случайно, у них похищают важную улику, которой очень интересуется ФБР. Теперь за налетчиками начинается настоящая охота…

Файл
Качество видео: BDRip 720p Исходник: Blu-ray
Формат: MKV Видео кодек: MPEG-4 AVC Аудио кодек: AC3
Видео: AVC, 1280x720 (16:9) at 23.976 fps, AVC at 5168 kbps avg, 0.234 bit/pixel
Аудио: Russian: 48 kHz; AC3 5.1; 448.00 kbps avg; профессиональный, полное дублирование
Субтитры: Русские, английские
Навигация по главам: Есть
Автор рипа:

MediaInfo

Rob the Mob.2014.720p.BluRay.x264-LEONARDO_[scarabey.org].mkv
Format : Matroska
Format version : Version 2
File size : 4.17 GiB
Duration : 1h 44mn
Overall bit rate : 5 730 Kbps
Movie name : -=LEONARDO=-
Encoded date : UTC 2014-07-26 19:53:13
Writing application : mkvmerge v5.0.1 ('Es ist Sommer') built on Oct 23 2011 00:46:40
Writing library : libebml v1.2.2 + libmatroska v1.3.0
Attachment : Yes
Video
ID : 1
Format : AVC
Format/Info : Advanced Video Codec
Format profile : High@L4.1
Format settings, CABAC : Yes
Format settings, ReFrames : 9 frames
Codec ID : V_MPEG4/ISO/AVC
Duration : 1h 44mn
Bit rate : 5 168 Kbps
Width : 1 280 pixels
Height : 720 pixels
Display aspect ratio : 16:9
Frame rate : 23.976 fps
Color space : YUV
Chroma subsampling : 4:2:0
Bit depth : 8 bits
Scan type : Progressive
Bits/(Pixel*Frame) : 0.234
Stream size : 3.76 GiB (90%)
Writing library : x264 core 125 r2208 d9d2288
Encoding settings : cabac=1 / ref=9 / deblock=1:-1:-1 / analyse=0x3:0x133 / me=umh / subme=11 / psy=1 / psy_rd=1.00:0.00 / mixed_ref=1 / me_range=32 / chroma_me=1 / trellis=2 / 8x8dct=1 / cqm=0 / deadzone=21,11 / fast_pskip=0 / chroma_qp_offset=-2 / threads=12 / lookahead_threads=2 / sliced_threads=0 / nr=0 / decimate=1 / interlaced=0 / bluray_compat=0 / constrained_intra=0 / bframes=8 / b_pyramid=2 / b_adapt=2 / b_bias=0 / direct=1 / weightb=1 / open_gop=0 / weightp=2 / keyint=250 / keyint_min=23 / scenecut=40 / intra_refresh=0 / rc=crf / mbtree=0 / crf=18.0 / qcomp=0.60 / qpmin=0 / qpmax=69 / qpstep=4 / ip_ratio=1.10 / pb_ratio=1.10 / aq=1:1.00
Language : English
Default : Yes
Forced : No
Audio
ID : 2
Format : AC-3
Format/Info : Audio Coding 3
Mode extension : CM (complete main)
Codec ID : A_AC3
Duration : 1h 44mn
Bit rate mode : Constant
Bit rate : 448 Kbps
Channel(s) : 6 channels
Channel positions : Front: L C R, Side: L R, LFE
Sampling rate : 48.0 KHz
Bit depth : 16 bits
Compression mode : Lossy
Stream size : 334 MiB (8%)
Language : Russian
Default : Yes
Forced : Yes
Text #1
ID : 3
Format : UTF-8
Codec ID : S_TEXT/UTF8
Codec ID/Info : UTF-8 Plain Text
Language : Russian
Default : No
Forced : No
Text #2
ID : 4
Format : UTF-8
Codec ID : S_TEXT/UTF8
Codec ID/Info : UTF-8 Plain Text
Language : English
Default : No
Forced : No
Menu
00:00:00.000 : en:Chapter 01
00:08:36.849 : en:Chapter 02
00:16:10.761 : en:Chapter 03
00:25:03.251 : en:Chapter 04
00:32:48.341 : en:Chapter 05
00:42:56.574 : en:Chapter 06
00:50:36.700 : en:Chapter 07
00:58:07.567 : en:Chapter 08
01:07:19.702 : en:Chapter 09
01:15:25.521 : en:Chapter 10
01:23:28.586 : en:Chapter 11
01:39:38.472 : en:Chapter 12

Полноразмерные скриншоты



Показать сообщения:    

Текущее время: 17-Сен 05:43

Часовой пояс: UTC + 3


Вы не можете начинать темы
Вы не можете отвечать на сообщения
Вы не можете редактировать свои сообщения
Вы не можете удалять свои сообщения
Вы не можете голосовать в опросах
Вы не можете прикреплять файлы к сообщениям
Вы не можете скачивать файлы

!ВНИМАНИЕ!
Сайт не предоставляет электронные версии произведений, а занимается лишь коллекционированием и каталогизацией ссылок, присылаемых и публикуемых на форуме нашими читателями. Если вы являетесь правообладателем какого-либо представленного материала и не желаете, чтобы ссылка на него находилась в нашем каталоге, свяжитесь с нами, и мы незамедлительно удалим ее. Файлы для обмена на трекере предоставлены пользователями сайта, и администрация не несет ответственности за их содержание. Просьба не заливать файлы, защищенные авторскими правами, а также файлы нелегального содержания!