۩ ‼ Вы находитесь на Бесплатном торрент-трекере TORRNADA.com ۩ Зарегистрируйтесь для получения полного доступа ко всем функциям сайта ! ۩ После регистрации подпишитесь на нашу рассылку в своём профиле ۩
Auto Web Pinger

 

[Цитировать]

Рай / Paradise (1982) DVDRip- Производство: Канада
Жанр: Мелодрама, приключения
Режиссер: Стюарт Гиллард
Актеры: Вилли Эймс, Фиби Кейтс, Тувиа Тави, Ричард Кернок, Нил Випонд, Авива Маркс, Йосси Шиллоах, Шошана Дер, Джерри Розен, Рики Халфон
Описание:
Караван из Багдада в Дамаск готовится к отправлению. В нем вместе с купцами путешествуют юная красавица англичанка Сара в сопровождении охранника и американский подросток Дэвид вместе с родителями. Когда на караван нападает печально знаменитый работорговец по кличке «Шакал», в живых остаются лишь Дэвид и Сара. Кажется, что им не избежать гибели в раскаленной пустыне. Но, блуждая по пескам, они находят тропический оазис, показавшийся им настоящим раем. Это место становится их домом. Дэвид и Сара учатся выживанию у самой природы, но само главное — они открывают друг друга и понимают, что могут быть не просто друзьями. Но сможет ли райский оазис укрыть их от Шакала, мечтающего превратить Сару в свою новую наложницу?

Продолжительность: 01:32:32
Качество видео: DVDRip (AVC)
Перевод: Профессиональный многоголосый
Язык субтитров: Английский
Вид субтитров: Вшитые (отключаемые)
Видео: AVC/H.264, 704x464@820x464 , 1673 Кбит/с
Аудио:
1. АС3, 2 ch, 192 Кбит/с - русский
2. AC3, 6 ch, 384 Кбит/с - английский

MediaInfo:

Общее
Уникальный идентификатор : 216086521683692363646134112682961815145 (0xA290C0119F91BF1694E5F91FCB084669)
Полное имя : C:\NNM\Рай\Raj 1982 DVDRip AVC.mkv
Формат : Matroska
Версия формата : Version 2
Размер файла : 1,46 Гбайт
Продолжительность : 1 ч. 32 м.
Общий поток : 2253 Кбит/сек
Программа кодирования : mkvmerge v4.2.0 ('No Talking') сборка от Jul 28 2010 18:38:23
Библиотека кодирования : libebml v1.0.0 + libmatroska v1.0.0
Видео
Идентификатор : 1
Формат : AVC
Формат/Информация : Advanced Video Codec
Профиль формата : High@L4.1
Параметр CABAC формата : Да
Параметр ReFrames формата : 9 кадров
Идентификатор кодека : V_MPEG4/ISO/AVC
Продолжительность : 1 ч. 32 м.
Битрейт : 1673 Кбит/сек
Ширина : 704 пикселя
Высота : 464 пикселя
Соотношение сторон : 16:9
Соотношение сторон в оригинале : 16:9
Частота кадров : 23,976 кадра/сек
Цветовое пространство : YUV
Субдискретизация насыщенности : 4:2:0
Битовая глубина : 8 бит
Тип развёртки : Прогрессивная
Бит/(Пиксели*Кадры) : 0.214
Размер потока : 1,05 Гбайт (72%)
Заголовок : (1982) Рай - релиз подготовил -Джон Коннор- для  .org
Библиотека кодирования : x264 core 92 r1510 33d382a
Настройки программы : cabac=1 / ref=9 / deblock=1:-2:-2 / analyse=0x3:0x133 / me=umh / subme=9 / psy=1 / psy_rd=1.00:0.10 / mixed_ref=1 / me_range=32 / chroma_me=1 / trellis=2 / 8x8dct=1 / cqm=0 / deadzone=21,11 / fast_pskip=0 / chroma_qp_offset=-3 / threads=3 / sliced_threads=0 / nr=0 / decimate=1 / interlaced=0 / constrained_intra=0 / bframes=8 / b_pyramid=2 / b_adapt=2 / b_bias=0 / direct=3 / wpredb=1 / wpredp=2 / keyint=250 / keyint_min=25 / scenecut=40 / intra_refresh=0 / rc_lookahead=50 / rc=2pass / mbtree=1 / bitrate=1673 / ratetol=1.0 / qcomp=0.60 / qpmin=10 / qpmax=51 / qpstep=4 / cplxblur=20.0 / qblur=0.5 / ip_ratio=1.40 / aq=1:1.00
Язык : Russian
Default : Да
Forced : Нет
Аудио #1
Идентификатор : 2
Формат : AC-3
Формат/Информация : Audio Coding 3
Расширение режима : CM (complete main)
Идентификатор кодека : A_AC3
Продолжительность : 1 ч. 32 м.
Вид битрейта : Постоянный
Битрейт : 192 Кбит/сек
Каналы : 2 канала
Расположение каналов : Front: L R
Частота : 48,0 КГц
Битовая глубина : 16 бит
Метод сжатия : С потерями
Размер потока : 127 Мбайт (9%)
Заголовок : Профессиональный (многоголосый, закадровый)
Язык : Russian
Default : Да
Forced : Нет
Аудио #2
Идентификатор : 3
Формат : AC-3
Формат/Информация : Audio Coding 3
Расширение режима : CM (complete main)
Идентификатор кодека : A_AC3
Продолжительность : 1 ч. 32 м.
Вид битрейта : Постоянный
Битрейт : 384 Кбит/сек
Каналы : 6 каналов
Расположение каналов : Front: L C R, Side: L R, LFE
Частота : 48,0 КГц
Битовая глубина : 16 бит
Метод сжатия : С потерями
Размер потока : 254 Мбайт (17%)
Заголовок : Оригинальный
Язык : English
Default : Нет
Forced : Нет
Текст
Идентификатор : 4
Формат : UTF-8
Идентификатор кодека : S_TEXT/UTF8
Идентификатор кодека/Информация : UTF-8 Plain Text
Заголовок : Оригинальные
Язык : English
Default : Нет
Forced : Нет
Скриншоты:


Показать сообщения:    

Текущее время: 16-Июл 13:40

Часовой пояс: UTC + 3


Вы не можете начинать темы
Вы не можете отвечать на сообщения
Вы не можете редактировать свои сообщения
Вы не можете удалять свои сообщения
Вы не можете голосовать в опросах
Вы не можете прикреплять файлы к сообщениям
Вы не можете скачивать файлы

!ВНИМАНИЕ!
Сайт не предоставляет электронные версии произведений, а занимается лишь коллекционированием и каталогизацией ссылок, присылаемых и публикуемых на форуме нашими читателями. Если вы являетесь правообладателем какого-либо представленного материала и не желаете, чтобы ссылка на него находилась в нашем каталоге, свяжитесь с нами, и мы незамедлительно удалим ее. Файлы для обмена на трекере предоставлены пользователями сайта, и администрация не несет ответственности за их содержание. Просьба не заливать файлы, защищенные авторскими правами, а также файлы нелегального содержания!