۩ ‼ Вы находитесь на Бесплатном торрент-трекере TORRNADA.com ۩ Зарегистрируйтесь для получения полного доступа ко всем функциям сайта ! ۩ После регистрации подпишитесь на нашу рассылку в своём профиле ۩
Auto Web Pinger

 

[Цитировать]

Воздушная дорога в Китай / High Road to China (1983) BDRip- Производство: США, Югославия, Гонконг
Жанр: Приключения, драма, мелодрама, военный
Режиссер: Брайан Дж. Хаттон
Актеры: Том Селлек, Бесс Армстронг, Джек Уэстон, Уилфорд Бримли, Роберт Морли, Брайан Блессид, Кассандра Гава, Майкл Ширд, Линда Ла Планте, Тимоти Карлтон
Описание:
Главная героиня фильма, храбрая и самостоятельная Ева, отважная и весьма энергичная девушка из высшего лондонского общества. Судьба преподнесла ей трудную проблему — где-то в Китае пропал ее отец, и вот уже на его приличное состояние претендует партнер, оказавшийся негодяем. Спасти ситуацию может только пропавший отец, но где его искать — Китай далеко, а время поджимает. Неразрешимая задача, но не для Евы — надо только успеть добраться до Китая и разыскать там отца...

Продолжительность: 01:40:59
Качество видео: BDRip
Перевод: Профессиональный многоголосый
Видео: XviD, 720x400, 1486 Кбит/с
Аудио:
1. AC3, 6 ch, 384 Кбит/с - русский
2. АС3, 2 ch, 192 Кбит/с - английский

MediaInfo:

Общее
Полное имя : C:\NNM\Воздушная дорога в Китай\Doroga v Kitaj 1983 BDRip.avi
Формат : AVI
Формат/Информация : Audio Video Interleave
Размер файла : 1,46 Гбайт
Продолжительность : 1 ч. 40 м.
Общий поток : 2076 Кбит/сек
Программа кодирования : VirtualDubModRus 1.5.10.2 (build 2542/release)
Библиотека кодирования : VirtualDubMod build 2542/release
Видео
Идентификатор : 0
Формат : MPEG-4 Visual
Профиль формата : Advanced Simple@L5
Параметр BVOP формата : 2
Параметр QPel формата : Нет
Параметр GMC формата : Без точки перехода
Параметр матрицы формата : Выборочная
Идентификатор кодека : XVID
Идентификатор кодека/Подсказка : XviD
Продолжительность : 1 ч. 40 м.
Битрейт : 1486 Кбит/сек
Ширина : 720 пикселей
Высота : 400 пикселей
Соотношение сторон : 16:9
Частота кадров : 25,000 кадров/сек
Цветовое пространство : YUV
Субдискретизация насыщенности : 4:2:0
Битовая глубина : 8 бит
Тип развёртки : Прогрессивная
Метод сжатия : С потерями
Бит/(Пиксели*Кадры) : 0.206
Размер потока : 1,05 Гбайт (72%)
Библиотека кодирования : XviD 65
Аудио #1
Идентификатор : 1
Формат : AC-3
Формат/Информация : Audio Coding 3
Расширение режима : CM (complete main)
Идентификатор кодека : 2000
Продолжительность : 1 ч. 40 м.
Вид битрейта : Постоянный
Битрейт : 384 Кбит/сек
Каналы : 6 каналов
Расположение каналов : Front: L C R, Side: L R, LFE
Частота : 48,0 КГц
Битовая глубина : 16 бит
Метод сжатия : С потерями
Размер потока : 277 Мбайт (18%)
Выравнивание : Разделение по промежуткам
Продолжительность промежутка : 40 мс. (1,00 видеокадр)
Время предзагрузки промежутка : 500 мс.
Аудио #2
Идентификатор : 2
Формат : AC-3
Формат/Информация : Audio Coding 3
Расширение режима : CM (complete main)
Идентификатор кодека : 2000
Продолжительность : 1 ч. 40 м.
Вид битрейта : Постоянный
Битрейт : 192 Кбит/сек
Каналы : 2 канала
Расположение каналов : Front: L R
Частота : 48,0 КГц
Битовая глубина : 16 бит
Метод сжатия : С потерями
Размер потока : 139 Мбайт (9%)
Выравнивание : Разделение по промежуткам
Продолжительность промежутка : 40 мс. (1,00 видеокадр)
Время предзагрузки промежутка : 500 мс.
Скриншоты:


Показать сообщения:    

Текущее время: 27-Май 16:42

Часовой пояс: UTC + 3


Вы не можете начинать темы
Вы не можете отвечать на сообщения
Вы не можете редактировать свои сообщения
Вы не можете удалять свои сообщения
Вы не можете голосовать в опросах
Вы не можете прикреплять файлы к сообщениям
Вы не можете скачивать файлы

!ВНИМАНИЕ!
Сайт не предоставляет электронные версии произведений, а занимается лишь коллекционированием и каталогизацией ссылок, присылаемых и публикуемых на форуме нашими читателями. Если вы являетесь правообладателем какого-либо представленного материала и не желаете, чтобы ссылка на него находилась в нашем каталоге, свяжитесь с нами, и мы незамедлительно удалим ее. Файлы для обмена на трекере предоставлены пользователями сайта, и администрация не несет ответственности за их содержание. Просьба не заливать файлы, защищенные авторскими правами, а также файлы нелегального содержания!