۩ ‼ Вы находитесь на Бесплатном торрент-трекере TORRNADA.com ۩ Зарегистрируйтесь для получения полного доступа ко всем функциям сайта ! ۩ После регистрации подпишитесь на нашу рассылку в своём профиле ۩
Auto Web Pinger

 

[Цитировать]

- Год выпуска: 1992
Страна: Япония
Жанр: махо-сёдзё, романтика, приключения, комедия
Продолжительность: 46 эп. по ~24 мин.
Режиссер: Сато Дзюнъити- -Описание: Современная Япония. Обычная японская школьница Цукино Усаги — перевоплощение жившей в глубокой древности девушки-воина Сейлор Мун, защитницы Лунного Королевства. Теперь, в наши дни, она и другие реинкарнации воинов Луны (Сейлор Меркурий, Сейлор Венера, Сейлор Марс и Сейлор Юпитер) снова должны сразиться со своими исконными врагами — правителями Тёмного Королевства. Попутно им необходимо найти Серенити, принцессу Лунного Королевства. В этом трудном деле деле девушкам помогают ещё два воина из прошлого — переродившиеся в кошек Луна и Артемис, а также перевоплощение принца древнего Земного Королевства Такседо Камен (‘Маска-во-фраке’) — студент Тиба Мамору, к которому Усаги неравнодушна.
World-Art-Доп. информация: Данная раздача представляет собой рип DVDRemux'ов итальянского отреставрированного (Remastered 2) издания. Компрессии подвергался только видео поток, аудио дорожки сохранены без потери качества.
За весь предоставленый материал огромное спасибо Edzyowa-Качество: DVDRip [by VampireHanter]
Тип релиза: Без хардсаба, без линковки
Формат видео: MKV -Видео: MPEG4 Video (H264), 720x576, ~1910-2110 Kbps, 25fps, 10bit
Аудио 1: Dolby AC3, 48kHz, ~224 Kbps, 2ch, Японский
Аудио 2: Dolby AC3, 48KHz, ~192 Kbps, 2ch, Русский (с канала [2x2], внешним файлом)
Аудио 3: Dolby AC3, 48kHz, ~224 Kbps, 2ch, Итальянский (внешним файлом)
Субтитры 1: SRT, Русские (внешние) [Vir@Apo Cogito-sPairing 2008 (исправлена орфография)]
Субтитры 2: ASS, Английские (внешние) [kick ass anime]
Субтитры 3: SRT, Японские (внешние, с японского телеканала)
Субтитры 4: IDX+SUB, Итальянские (внешние)-

Дополнительная информация о русских дорожках

В сериях 01,08,15,22,26,30,34 присутствует вступительная речь Вадима Андреева.
В сериях 01—37 присутствует закадровый голос во вставках посерёдке.
В сериях 01—26 присутствуют подлинные заключительные титры от Андреева.
Звук дорожек 2х2 и доп. вступлений предоставили: drbars, ALEKS KV и chame1eon
Синхронизация дорожек: ALEKS KV
-

MediaInfo

General
Unique ID : 242746301442978015839590154121675034349 (0xB69F3CB1869875FE8CEC4D1887484EED)
Complete name : F:\[_Download_]\Sailor Moon\Season 01\Sailor Moon - 01 (001).mkv
Format : Matroska
Format version : Version 4 / Version 2
File size : 403 MiB
Duration : 24mn 7s
Overall bit rate : 2 336 Kbps
Encoded date : UTC 2014-07-18 20:00:39
Writing application : mkvmerge v7.0.0 ('Where We Going') 32bit built on Jun 9 2014 15:08:34
Writing library : libebml v1.3.0 + libmatroska v1.4.1
DURATION : 00:22:27.140000000
NUMBER_OF_FRAMES : 334
NUMBER_OF_BYTES : 23306
_STATISTICS_WRITING_APP : mkvmerge v7.0.0 ('Where We Going') 32bit built on Jun 9 2014 15:08:34
_STATISTICS_WRITING_DATE_UTC : 2014-07-18 20:00:39
_STATISTICS_TAGS : BPS DURATION NUMBER_OF_FRAMES NUMBER_OF_BYTES
Video
ID : 1
Format : AVC
Format/Info : Advanced Video Codec
Format profile : High 10@L3.1
Format settings, CABAC : Yes
Format settings, ReFrames : 5 frames
Codec ID : V_MPEG4/ISO/AVC
Duration : 24mn 7s
Bit rate : 2 110 Kbps
Width : 720 pixels
Height : 576 pixels
Display aspect ratio : 5:4
Frame rate mode : Constant
Frame rate : 25.000 fps
Standard : PAL
Color space : YUV
Chroma subsampling : 4:2:0
Bit depth : 10 bits
Scan type : Progressive
Bits/(Pixel*Frame) : 0.204
Stream size : 356 MiB (88%)
Writing library : x264 core 142 r2431 ac76440
Encoding settings : cabac=1 / ref=5 / deblock=1:1:1 / analyse=0x3:0x133 / me=umh / subme=10 / psy=1 / psy_rd=1.00:0.00 / mixed_ref=1 / me_range=24 / chroma_me=1 / trellis=2 / 8x8dct=1 / cqm=0 / deadzone=21,11 / fast_pskip=1 / chroma_qp_offset=-2 / threads=6 / lookahead_threads=1 / sliced_threads=0 / nr=0 / decimate=1 / interlaced=0 / bluray_compat=0 / constrained_intra=0 / bframes=10 / b_pyramid=2 / b_adapt=2 / b_bias=0 / direct=3 / weightb=1 / open_gop=0 / weightp=2 / keyint=250 / keyint_min=25 / scenecut=40 / intra_refresh=0 / rc_lookahead=60 / rc=2pass / mbtree=1 / bitrate=2110 / ratetol=1.0 / qcomp=0.70 / qpmin=0 / qpmax=81 / qpstep=4 / cplxblur=20.0 / qblur=0.5 / vbv_maxrate=17500 / vbv_bufsize=17500 / nal_hrd=none / filler=0 / ip_ratio=1.40 / aq=1:1.00
Default : Yes
Forced : No
Audio
ID : 2
Format : AC-3
Format/Info : Audio Coding 3
Mode extension : CM (complete main)
Format settings, Endianness : Big
Codec ID : A_AC3
Duration : 24mn 7s
Bit rate mode : Constant
Bit rate : 224 Kbps
Channel(s) : 2 channels
Channel positions : Front: L R
Sampling rate : 48.0 KHz
Bit depth : 16 bits
Compression mode : Lossy
Stream size : 38.7 MiB (10%)
Language : Japanese
Default : Yes
Forced : No
Text #1
ID : 3
Format : UTF-8
Codec ID : S_TEXT/UTF8
Codec ID/Info : UTF-8 Plain Text
Language : Russian
Default : Yes
Forced : No
Text #2
ID : 4
Format : ASS
Codec ID : S_TEXT/ASS
Codec ID/Info : Advanced Sub Station Alpha
Compression mode : Lossless
Language : English
Default : No
Forced : No

Скриншоты

Список эпизодов

01. Плакса пpевpащается в воина
02. Дом пpедсказаний - гнездо монстpов
03. Береги любовь
04. Хочешь похудеть?
05. Взгляд похищающий разум
06. Банни в роли купидона
07. Как стать звездой
08. Может ли зло быть гениальным?
09. Береги своё время
10. Третий воин
11. Битва в парке развлечений
12. Приключение на океанском лайнере
13. Объединимся девчонки, или конец Джедайту
14. Hовый могущественный вpаг, Hефpит, пpиносит на землю злое заклятие
15. Банни не находит себе места, а Рей впервые идет на свидание
16. Белоснежное свадебное платье. Банни превращается в невесту
17. Банни - модель, или Демоны кpупным планом
18. Любовь Синго: печальная кукла
19. Банни потpясена! Любовное послание от Таксэдо
20. Лето, море, девушки, а также привидения
21. О том, как побеждает дpужба и талант аниматоpов
22. Первый поцелуй Банни
23. Загадай желание, или Первая любовь Hару
24. Умереть за Hару
25. Девочка-Юпитер влюбилась
26. Hару снова улыбается
27. Любовь Ами
28. Я нарисую ваш портрет
29. Любовь или учёба
30. Дедушка превращается в чудовище
31. Несчастный день для Луны
32. Юмино становится Юмино-Таксэдо Маск
33. Пятый воин - воин Венеры
34. Кто же Лунная Принцесса?
35. Воспоминания Банни и Мамору
36. Банни в недоумении: неужели Таксэдо Маск - враг?
37. Как стать принцессой, или странная учеба Банни.
38. Да здравствуют снег, горы и наша дружба!
39. Мой партнёр - демон, или Мако - королева льда
40. Дух зла из озера, или Семейные узы
41. Я не боюсь любить его, или Ами против Мамору
42. Несчастная любовь Минако
43. Сейлормун против остальных воинов
44. Банни пробуждается. Послание из далекого прошлого.
45. Сейлормун гибнет в битве. Последнее трагическое сражение
46. Сбывается вечная мечта Банни о новой жизни
-


Показать сообщения:    

Текущее время: 27-Май 10:34

Часовой пояс: UTC + 3


Вы не можете начинать темы
Вы не можете отвечать на сообщения
Вы не можете редактировать свои сообщения
Вы не можете удалять свои сообщения
Вы не можете голосовать в опросах
Вы не можете прикреплять файлы к сообщениям
Вы не можете скачивать файлы

!ВНИМАНИЕ!
Сайт не предоставляет электронные версии произведений, а занимается лишь коллекционированием и каталогизацией ссылок, присылаемых и публикуемых на форуме нашими читателями. Если вы являетесь правообладателем какого-либо представленного материала и не желаете, чтобы ссылка на него находилась в нашем каталоге, свяжитесь с нами, и мы незамедлительно удалим ее. Файлы для обмена на трекере предоставлены пользователями сайта, и администрация не несет ответственности за их содержание. Просьба не заливать файлы, защищенные авторскими правами, а также файлы нелегального содержания!