۩ ‼ Вы находитесь на Бесплатном торрент-трекере TORRNADA.com ۩ Зарегистрируйтесь для получения полного доступа ко всем функциям сайта ! ۩ После регистрации подпишитесь на нашу рассылку в своём профиле ۩
Auto Web Pinger

 

[Цитировать]

Запятнанная репутация / The Human Stain (2003) BDRip [H.264/720р-LQ] - Производство: США, Германия, Франция / Cinepsilon, Cinerenta Medienbeteiligungs KG, Lakeshore Entertainment, Miramax Films, Stone Village Productions
Жанр: Драма, Мелодрама
Режиссер: Роберт Бентон
Актеры: Энтони Хопкинс, Николь Кидман, Эд Харрис, Гэри Синиз, Вентворт Миллер, Джасинда Бэррет, Гарри Дж. Ленникс, Кларк Грегг, Анна Дивер Смит, Лизэн Митчелл
Описание:
Неосторожная шутка, воспринятая как расистское замечание в адрес чернокожих студентов, вынуждает уважаемого профессора Колмана Силка со скандалом покинуть родной университет. Это известие становится фатальным для жены Колмана, которая умирает от сердечного приступа. Убитый горем профессор отчаянно пытается восстановить запятнанную репутацию, но знакомство с молодой уборщицей Фонией дарит ему неожиданное утешение. Поставив на кон свою репутацию, Колман безоглядно отдается новому чувству и вскоре между ним и яркой и неукротимой женщиной, чьи несчастья умножает муж-психопат вспыхивает страстная любовь. Однако их сложные отношения внезапно оказываются под угрозой, когда становится ясно, что Колмана и Фонию объединяет не только страсть, но и мрачные тайны, которые они так долго хранили в своей душе…

Продолжительность: 01:47:46
Качество видео: BDRip
Перевод: Дублированный, многоголосый закадровый, авторский
Язык субтитров: Русский, английский
Вид субтитров: Вшитые отключаемые
Видео: AVC/H.264, 1280x544, ~2450 Kbps
Аудио 1: Русский, AC3, 6 ch, 384 Kbps, 48.0 kHz (Дублированный, МОСФИЛЬМ-мастер)
Аудио 2: Русский, AC3, 2 ch, 192 Kbps, 48.0 kHz (Многоголосый закадровый, DDV)
Аудио 3: Русский, AC3, 2 ch, 192 Kbps, 48.0 kHz (Авторский, Ю.Сербин)
Аудио 4: Английский, AC3, 2 ch, 192 Kbps, 48.0 kHz (Оригинал)

Mediainfo:

General
Unique ID                                : 221262535537363528866075852092149481160 (0xA6759D4135406B11AA5035388D523EC8)
Complete name                            : F:\Downloads\Запятнанная репутация.mkv
Format                                   : Matroska
Format version                           : Version 4 / Version 2
File size                                : 2.57 GiB
Duration                                 : 1h 47mn
Overall bit rate                         : 3 411 Kbps
Encoded date                             : UTC 2015-07-12 23:03:27
Writing application                      : mkvmerge v7.0.0 ('Where We Going') 32bit built on Jun  9 2014 15:08:34
Writing library                          : libebml v1.3.0 + libmatroska v1.4.1
DURATION                                 : 01:40:36.192000000
NUMBER_OF_FRAMES                         : 1168
NUMBER_OF_BYTES                          : 44511
_STATISTICS_WRITING_APP                  : mkvmerge v7.0.0 ('Where We Going') 32bit built on Jun  9 2014 15:08:34
_STATISTICS_WRITING_DATE_UTC             : 2015-07-12 23:03:27
_STATISTICS_TAGS                         : BPS DURATION NUMBER_OF_FRAMES NUMBER_OF_BYTES
Video
ID                                       : 1
Format                                   : AVC
Format/Info                              : Advanced Video Codec
Format profile                           : High@L4.1
Format settings, CABAC                   : Yes
Format settings, ReFrames                : 8 frames
Codec ID                                 : V_MPEG4/ISO/AVC
Duration                                 : 1h 47mn
Bit rate                                 : 2 450 Kbps
Width                                    : 1 280 pixels
Height                                   : 544 pixels
Display aspect ratio                     : 2.35:1
Frame rate mode                          : Constant
Frame rate                               : 23.976 fps
Color space                              : YUV
Chroma subsampling                       : 4:2:0
Bit depth                                : 8 bits
Scan type                                : Progressive
Bits/(Pixel*Frame)                       : 0.147
Stream size                              : 1.79 GiB (70%)
Title                                    : The Human Stain
Writing library                          : x264 core 125 r2208 d9d2288
Encoding settings                        : cabac=1 / ref=8 / deblock=1:-1:-1 / analyse=0x3:0x133 / me=umh / subme=9 / psy=1 / psy_rd=1.00:0.10 / mixed_ref=1 / me_range=32 / chroma_me=1 / trellis=2 / 8x8dct=1 / cqm=0 / deadzone=21,11 / fast_pskip=0 / chroma_qp_offset=-3 / threads=6 / lookahead_threads=1 / sliced_threads=0 / nr=0 / decimate=1 / interlaced=0 / bluray_compat=0 / constrained_intra=0 / bframes=3 / b_pyramid=2 / b_adapt=2 / b_bias=0 / direct=3 / weightb=1 / open_gop=0 / weightp=2 / keyint=250 / keyint_min=25 / scenecut=40 / intra_refresh=0 / rc_lookahead=60 / rc=2pass / mbtree=1 / bitrate=2450 / ratetol=1.0 / qcomp=0.60 / qpmin=0 / qpmax=69 / qpstep=4 / cplxblur=20.0 / qblur=0.5 / ip_ratio=1.40 / aq=1:1.00
Language                                 : English
Default                                  : Yes
Forced                                   : No
Audio #1
ID                                       : 2
Format                                   : AC-3
Format/Info                              : Audio Coding 3
Mode extension                           : CM (complete main)
Format settings, Endianness              : Big
Codec ID                                 : A_AC3
Duration                                 : 1h 47mn
Bit rate mode                            : Constant
Bit rate                                 : 384 Kbps
Channel(s)                               : 6 channels
Channel positions                        : Front: L C R, Side: L R, LFE
Sampling rate                            : 48.0 KHz
Bit depth                                : 16 bits
Compression mode                         : Lossy
Stream size                              : 296 MiB (11%)
Title                                    : Дублированный
Language                                 : Russian
Default                                  : Yes
Forced                                   : No
Audio #2
ID                                       : 3
Format                                   : AC-3
Format/Info                              : Audio Coding 3
Mode extension                           : CM (complete main)
Format settings, Endianness              : Big
Codec ID                                 : A_AC3
Duration                                 : 1h 47mn
Bit rate mode                            : Constant
Bit rate                                 : 192 Kbps
Channel(s)                               : 2 channels
Channel positions                        : Front: L R
Sampling rate                            : 48.0 KHz
Bit depth                                : 16 bits
Compression mode                         : Lossy
Stream size                              : 148 MiB (6%)
Title                                    : Многоголосый закадровый
Language                                 : Russian
Default                                  : No
Forced                                   : No
Audio #3
ID                                       : 4
Format                                   : AC-3
Format/Info                              : Audio Coding 3
Mode extension                           : CM (complete main)
Format settings, Endianness              : Big
Codec ID                                 : A_AC3
Duration                                 : 1h 47mn
Bit rate mode                            : Constant
Bit rate                                 : 192 Kbps
Channel(s)                               : 2 channels
Channel positions                        : Front: L R
Sampling rate                            : 48.0 KHz
Bit depth                                : 16 bits
Compression mode                         : Lossy
Stream size                              : 148 MiB (6%)
Title                                    : Авторский, Ю.Сербин
Language                                 : Russian
Default                                  : No
Forced                                   : No
Audio #4
ID                                       : 5
Format                                   : AC-3
Format/Info                              : Audio Coding 3
Mode extension                           : CM (complete main)
Format settings, Endianness              : Big
Codec ID                                 : A_AC3
Duration                                 : 1h 47mn
Bit rate mode                            : Constant
Bit rate                                 : 192 Kbps
Channel(s)                               : 2 channels
Channel positions                        : Front: L R
Sampling rate                            : 48.0 KHz
Bit depth                                : 16 bits
Compression mode                         : Lossy
Stream size                              : 148 MiB (6%)
Title                                    : Оригинал
Language                                 : English
Default                                  : No
Forced                                   : No
Text #1
ID                                       : 6
Format                                   : UTF-8
Codec ID                                 : S_TEXT/UTF8
Codec ID/Info                            : UTF-8 Plain Text
Title                                    : Вшитые отключаемые
Language                                 : Russian
Default                                  : No
Forced                                   : No
Text #2
ID                                       : 7
Format                                   : UTF-8
Codec ID                                 : S_TEXT/UTF8
Codec ID/Info                            : UTF-8 Plain Text
Title                                    : Вшитые отключаемые
Language                                 : English
Default                                  : No
Forced                                   : No
Скриншоты:
Не жилим спасибо. Не забываем голосовать за трекер!!!


Показать сообщения:    

Текущее время: 20-Июл 04:55

Часовой пояс: UTC + 3


Вы не можете начинать темы
Вы не можете отвечать на сообщения
Вы не можете редактировать свои сообщения
Вы не можете удалять свои сообщения
Вы не можете голосовать в опросах
Вы не можете прикреплять файлы к сообщениям
Вы не можете скачивать файлы

!ВНИМАНИЕ!
Сайт не предоставляет электронные версии произведений, а занимается лишь коллекционированием и каталогизацией ссылок, присылаемых и публикуемых на форуме нашими читателями. Если вы являетесь правообладателем какого-либо представленного материала и не желаете, чтобы ссылка на него находилась в нашем каталоге, свяжитесь с нами, и мы незамедлительно удалим ее. Файлы для обмена на трекере предоставлены пользователями сайта, и администрация не несет ответственности за их содержание. Просьба не заливать файлы, защищенные авторскими правами, а также файлы нелегального содержания!