۩ ‼ Вы находитесь на Бесплатном торрент-трекере TORRNADA.com ۩ Зарегистрируйтесь для получения полного доступа ко всем функциям сайта ! ۩ После регистрации подпишитесь на нашу рассылку в своём профиле ۩
Auto Web Pinger

 

[Цитировать]

Экскалибур / Excalibur (1981) HDRip- Производство: США, Великобритания
Жанр: Фэнтези, драма, приключения, экранизация
Режиссер: Джон Бурмен
Актеры: Найджел Терри, Хелен Миррен, Николас Клэй, Шери Лунги, Пол Джефри, Никол Уильямсон, Роберт Эдди, Кит Бакли, Кэтрин Бурмен, Корин Редгрэйв, Гэбриел Бирн, Лиам Нисон
Описание:
Экранизация романа Томаса Мэлори «Смерть Артура». Экскалибур — это меч легендарного короля Артура, воспетого трубадурами и менестрелями, правившего Англией в те славные времена, когда достойные рыцари восседали на своих местах за Круглым столом, поднимая чаши за здравие Его Величества и окончательную победу над злом. В той древности люди больше полагались на предсказания магов и наговоры колдунов, меньше веря в силу разума и своего опыта. Однако именно тогда заклинания и пророчества уступили свое место тому, что мы называем здравым смыслом…

Продолжительность: 02:20:44
Качество видео: HDRip
Перевод: Дублированный
Видео: XviD, 720x384, 1954 Кбит/с
Аудио: AC3, 2 ch, 256 Кбит/с
Награды и номинации

MediaInfo:

Общее
Полное имя : C:\NNM\Экскалибур\Excalibur 1981 HDRip.avi
Формат : AVI
Формат/Информация : Audio Video Interleave
Профиль формата : OpenDML
Размер файла : 2,18 Гбайт
Продолжительность : 2 ч. 20 м.
Общий поток : 2222 Кбит/сек
Программа кодирования : VirtualDubModRus 1.5.10.2 (build 2542/release)
Библиотека кодирования : VirtualDubMod build 2542/release
Видео
Идентификатор : 0
Формат : MPEG-4 Visual
Профиль формата : Advanced Simple@L5
Параметр BVOP формата : 2
Параметр QPel формата : Нет
Параметр GMC формата : Без точки перехода
Параметр матрицы формата : Выборочная
Режим смешивания : Сжатый битовый поток
Идентификатор кодека : XVID
Идентификатор кодека/Подсказка : XviD
Продолжительность : 2 ч. 20 м.
Битрейт : 1954 Кбит/сек
Ширина : 720 пикселей
Высота : 384 пикселя
Соотношение сторон : 1,875
Частота кадров : 23,976 кадра/сек
Цветовое пространство : YUV
Субдискретизация насыщенности : 4:2:0
Битовая глубина : 8 бит
Тип развёртки : Прогрессивная
Метод сжатия : С потерями
Бит/(Пиксели*Кадры) : 0.295
Размер потока : 1,92 Гбайт (88%)
Библиотека кодирования : XviD 1.2.1 (UTC 2008-12-04)
Аудио
Идентификатор : 1
Формат : AC-3
Формат/Информация : Audio Coding 3
Расширение режима : CM (complete main)
Идентификатор кодека : 2000
Продолжительность : 2 ч. 20 м.
Вид битрейта : Постоянный
Битрейт : 256 Кбит/сек
Каналы : 2 канала
Расположение каналов : Front: L R
Частота : 48,0 КГц
Битовая глубина : 16 бит
Метод сжатия : С потерями
Размер потока : 258 Мбайт (12%)
Выравнивание : Соединение по промежуткам
Продолжительность промежутка : 42 мс. (1,00 видеокадр)
Время предзагрузки промежутка : 512 мс.
Заголовок : дубляж
Скриншоты: Не жилим спасибо. Не забываем голосовать за трекер!!!


Показать сообщения:    

Текущее время: 26-Авг 08:45

Часовой пояс: UTC + 3


Вы не можете начинать темы
Вы не можете отвечать на сообщения
Вы не можете редактировать свои сообщения
Вы не можете удалять свои сообщения
Вы не можете голосовать в опросах
Вы не можете прикреплять файлы к сообщениям
Вы не можете скачивать файлы

!ВНИМАНИЕ!
Сайт не предоставляет электронные версии произведений, а занимается лишь коллекционированием и каталогизацией ссылок, присылаемых и публикуемых на форуме нашими читателями. Если вы являетесь правообладателем какого-либо представленного материала и не желаете, чтобы ссылка на него находилась в нашем каталоге, свяжитесь с нами, и мы незамедлительно удалим ее. Файлы для обмена на трекере предоставлены пользователями сайта, и администрация не несет ответственности за их содержание. Просьба не заливать файлы, защищенные авторскими правами, а также файлы нелегального содержания!