۩ ‼ Вы находитесь на Бесплатном торрент-трекере TORRNADA.com ۩ Зарегистрируйтесь для получения полного доступа ко всем функциям сайта ! ۩ После регистрации подпишитесь на нашу рассылку в своём профиле ۩
Auto Web Pinger

 

[Цитировать]

Viasat Nature: Тайны мировых озер / The Secret Life of Lakes (La vie secrete des lacs) [сезон 1 серии 1-4 из 5] (2015) SATRip - Телекомпания: ZED Productions Nova Media
Режиссер: Florence Tran, Bruni Victor-Pugebet
Жанр: Документальный, познавательный
Описание:
В мире существует около пяти миллионов озер, которые являются огромным резервуаром пресной воды. Созданные различными климатическими и геологическими условиями, озера являются регулировщиками стока рек, задерживая в своих котловинах полые воды и отдавая их в другие периоды. Несмотря на то, что все озера могут показаться одинаковыми, они все же очень отличаются друг от друга. Одни такие же глубокие, как и океан, другие - можно пересечь пешком. Порой кажется, что некоторые озера существовали целую вечность, другие же появляются и исчезают по мере смены сезонов. Однако всех их объединяет одно - они скрывают удивительные подводные миры.
Список серий:
01. Озеро Насер. Вода в сердце пустыни / Lake Naser. Water in the Heart of the Desert (Le lac Nasser. L'eau au cosur du desert)
В этой серии мы отправимся на озеро Насер, которое образовалось в результате строительства Асуанской плотины, и узнаем, как его появление повлияло на окружающую среду.
02. Озеро Байкал. Лёд и вода / Lake Baikal. Ice and Water (Le lac Bakal - D'eau et de glace)
В этой серии мы отправимся в самое сердце Сибири, на озеро Байкал, которое является самым глубоким озером на планете и крупнейшим природным резервуаром пресной воды.
03. Озеро Тонлесап. Бьющееся сердце Камбоджи / Tonle Sap. The Beating Heart of Cambodia (Tonie Sap, le coeur battant du Cambodge)
В этой серии мы отправимся на озеро Тонлесап, которое сравнительно не велико и имеет не более метра глубины, однако во время сезона дождей вода в озере поднимается и затопляет окрестные поля и леса.
04. Ленсойс Мараньенсес. Песок и озёра / Lencois Maranenses. Of Sands and Lakes ( Les lacs de sable)
В Бразилии, с её тропическим климатом, нет настоящих пустынь, однако есть удивительная пустыня Ленсойс Мараньенсес, где в сезон дождей возникает множество пресных озер.
05. Большое Солёное озеро Юта США / (Le Grand Lac Sale, aux Etats-Unis) (не транслировалась :dont: )
Продолжительность: 4x~00:49:55
Качество видео: SATRip
Перевод: Одноголосый закадровый, профессиональный, переведено и озвучено на студии "SDI Media" перевод Татьяны Вишневской, текст читает Юрий Большаков
Видео: Xvid, 704x400, ~25fps 1800 Kbps
Аудио: AC3, 2 ch, 48kHz, 192 kbps

Mediainfo:

Format                         : AVI
Format/Info                    : Audio Video Interleave
File size                      : 713 MiB
Duration                       : 49mn 54s
Overall bit rate               : 1 999 Kbps
Writing application            : TMPGEnc Video Mastering Works 5 Version. 5.0.6.38
Writing library                : TMPGEnc Video Mastering Works 5 Version. 5.0.6.38
Video
ID                             : 0
Format                         : MPEG-4 Visual
Format profile                 : Advanced Simple@L5
Format settings, BVOP          : 2
Format settings, QPel          : No
Format settings, GMC           : No warppoints
Format settings, Matrix        : Default (H.263)
Muxing mode                    : Packed bitstream
Codec ID                       : XVID
Codec ID/Hint                  : XviD
Duration                       : 49mn 54s
Bit rate                       : 1 799 Kbps
Width                          : 704 pixels
Height                         : 400 pixels
Display aspect ratio           : 16:9
Frame rate                     : 25.000 fps
Color space                    : YUV
Chroma subsampling             : 4:2:0
Bit depth                      : 8 bits
Scan type                      : Progressive
Compression mode               : Lossy
Bits/(Pixel*Frame)             : 0.256
Stream size                    : 642 MiB (90%)
Writing library                : XviD 73
Audio
ID                             : 1
Format                         : AC-3
Format/Info                    : Audio Coding 3
Mode extension                 : CM (complete main)
Format settings, Endianness    : Big
Codec ID                       : 2000
Duration                       : 49mn 54s
Bit rate mode                  : Constant
Bit rate                       : 192 Kbps
Channel(s)                     : 2 channels
Channel positions              : Front: L R
Sampling rate                  : 48.0 KHz
Compression mode               : Lossy
Stream size                    : 68.5 MiB (10%)
Alignment                      : Aligned on interleaves
Interleave, duration           : 240 ms (6.00 video frames)
Interleave, preload duration   : 224 ms
Скриншоты:

Дополнительные скриншоты:


Не жилим спасибо. Не забываем голосовать за трекер!!!


Показать сообщения:    

Текущее время: 27-Май 16:35

Часовой пояс: UTC + 3


Вы не можете начинать темы
Вы не можете отвечать на сообщения
Вы не можете редактировать свои сообщения
Вы не можете удалять свои сообщения
Вы не можете голосовать в опросах
Вы не можете прикреплять файлы к сообщениям
Вы не можете скачивать файлы

!ВНИМАНИЕ!
Сайт не предоставляет электронные версии произведений, а занимается лишь коллекционированием и каталогизацией ссылок, присылаемых и публикуемых на форуме нашими читателями. Если вы являетесь правообладателем какого-либо представленного материала и не желаете, чтобы ссылка на него находилась в нашем каталоге, свяжитесь с нами, и мы незамедлительно удалим ее. Файлы для обмена на трекере предоставлены пользователями сайта, и администрация не несет ответственности за их содержание. Просьба не заливать файлы, защищенные авторскими правами, а также файлы нелегального содержания!