۩ ‼ Вы находитесь на Бесплатном торрент-трекере TORRNADA.com ۩ Зарегистрируйтесь для получения полного доступа ко всем функциям сайта ! ۩ После регистрации подпишитесь на нашу рассылку в своём профиле ۩
Auto Web Pinger

 

[Цитировать]

Kiss - Live In Nurburgring (2010) BDRip [H.264/720р] - Выпущено: Мексика | Zima Entertainment
Жанр: Rock, Hard Rock, Heavy Metal
Год выпуска: 2010/2012
Исполнитель: Kiss
Описание:
Kiss — американская рок-группа, основанная в Нью-Йорке в январе 1973 года и известная сценическими макияжами её участников, а также концертными шоу, сопровождающимися различными пиротехническими эффектами.
Продолжительность: 01:54:02
Качество видео: BDRip (720р)
Контейнер: MKV
Битрейт видео: ~7500 kbps, (16:9), 1280x720р, 24,000 fps, High Profile 4.1
Видеокодек: MPEG-4 AVC
Аудиокодек:DTS, AC3,
Аудио #1: DTS 5.1, 1509 kbps, 48 kHz, 16 bit
Аудио #2: AC3 2.0, 640 kbps, 48 kHz
Семпл
Релиз от
..

Треклист:

Треклист:
01. Modern Day Delilah
02. Cold Gin
03. Let Me Go, Rock 'N'
04. Firehouse
05. Say Yeah
06. Deuce
07. Crazy Crazy Nights
08. Calling Dr. Love
09. Shock Me
10. I'm An Animal
11. 100,000 Years
12. I Love It Loud
13. Love Gun
14. Black Diamond
15. Detroit Rock City
16. Beth
17. Lick It Up
18. Shout It Out Loud
19. I Was Made For Lovin' You
20. God Gave Rock 'n' Roll to You II
21. Rock And Roll All Nite
*****************
исходник: hdclub

h.264 log

---[Information] [12.07.2015 14:13:46] x264 [info]: profile High, level 4.1
---[Information] [12.07.2015 18:25:08] x264 [info]: frame I:1310 Avg QP:16.68 size:114408
---[Information] [12.07.2015 18:25:08] x264 [info]: frame P:52302 Avg QP:19.82 size: 58327
---[Information] [12.07.2015 18:25:08] x264 [info]: frame B:110609 Avg QP:21.90 size: 29065
---[Information] [12.07.2015 18:25:08] x264 [info]: consecutive B-frames: 7.4% 9.3% 20.2% 36.4% 11.0% 14.4% 0.8% 0.2% 0.1% 0.1% 0.1%
---[Information] [12.07.2015 18:25:08] x264 [info]: mb I I16..4: 5.5% 65.5% 29.1%
---[Information] [12.07.2015 18:25:08] x264 [info]: mb P I16..4: 6.3% 39.0% 6.7% P16..4: 24.7% 13.6% 7.1% 0.8% 0.2% skip: 1.6%
---[Information] [12.07.2015 18:25:08] x264 [info]: mb B I16..4: 1.8% 7.9% 1.7% B16..8: 33.6% 14.1% 4.0% direct:15.1% skip:21.8% L0:38.5% L1:40.4% BI:21.1%
---[Information] [12.07.2015 18:25:08] x264 [info]: 8x8 transform intra:73.0% inter:59.7%
---[Information] [12.07.2015 18:25:08] x264 [info]: direct mvs spatial:96.6% temporal:3.4%
---[Information] [12.07.2015 18:25:08] x264 [info]: coded y,uvDC,uvAC intra: 65.6% 86.3% 53.9% inter: 35.0% 51.1% 12.5%
---[Information] [12.07.2015 18:25:08] x264 [info]: i16 v,h,dc,p: 39% 18% 11% 33%
---[Information] [12.07.2015 18:25:08] x264 [info]: i8 v,h,dc,ddl,ddr,vr,hd,vl,hu: 20% 13% 21% 6% 7% 8% 8% 8% 9%
---[Information] [12.07.2015 18:25:08] x264 [info]: i4 v,h,dc,ddl,ddr,vr,hd,vl,hu: 16% 11% 5% 8% 12% 13% 12% 11% 12%
---[Information] [12.07.2015 18:25:08] x264 [info]: i8c dc,h,v,p: 35% 25% 22% 18%
---[Information] [12.07.2015 18:25:08] x264 [info]: Weighted P-Frames: Y:10.2% UV:8.5%
---[Information] [12.07.2015 18:25:08] x264 [info]: ref P L0: 57.3% 12.4% 16.5% 5.8% 4.0% 3.1% 1.0% 0.1%
---[Information] [12.07.2015 18:25:08] x264 [info]: ref B L0: 83.5% 10.4% 3.9% 1.5% 0.7%
---[Information] [12.07.2015 18:25:08] x264 [info]: ref B L1: 95.2% 4.8%
---[Information] [12.07.2015 18:25:08] x264 [info]: kb/s:7500.52

MediaInfo

Формат : Matroska
Версия формата : Version 1
Размер файла : 7,69 Гбайт
Продолжительность : 1 ч. 54 м.
Общий поток : 9654 Кбит/сек
Дата кодирования : UTC 2015-07-12 08:29:11
Программа кодирования : mkvmerge v2.4.2 ('Oh My God') built on Jan 18 2009 17:30:28
Библиотека кодирования : libebml v0.7.7 + libmatroska v0.8.1
Видео
Идентификатор : 1
Формат : AVC
Формат/Информация : Advanced Video Codec
Профиль формата : High@L4.1
Параметр CABAC формата : Да
Параметр ReFrames формата : 6 кадров
Идентификатор кодека : V_MPEG4/ISO/AVC
Продолжительность : 1 ч. 54 м.
Битрейт : 7500 Кбит/сек
Ширина : 1280 пикселей
Высота : 720 пикселей
Соотношение сторон : 16:9
Режим частоты кадров : Постоянный
Частота кадров : 24,000 кадра/сек
Цветовое пространство : YUV
Субдискретизация насыщенности : 4:2:0
Битовая глубина : 8 бит
Тип развёртки : Прогрессивная
Бит/(Пиксели*Кадры) : 0.339
Размер потока : 5,83 Гбайт (76%)
Библиотека кодирования : x264 core 146 r2538 121396c
Настройки программы : cabac=1 / ref=6 / deblock=1:-2:-2 / analyse=0x3:0x133 / me=umh / subme=10 / psy=1 / psy_rd=1.00:0.15 / mixed_ref=1 / me_range=24 / chroma_me=1 / trellis=2 / 8x8dct=1 / cqm=0 / deadzone=21,11 / fast_pskip=0 / chroma_qp_offset=-3 / threads=12 / lookahead_threads=3 / sliced_threads=0 / nr=0 / decimate=1 / interlaced=0 / bluray_compat=0 / constrained_intra=0 / bframes=10 / b_pyramid=2 / b_adapt=2 / b_bias=0 / direct=3 / weightb=1 / open_gop=0 / weightp=2 / keyint=240 / keyint_min=23 / scenecut=40 / intra_refresh=0 / rc_lookahead=40 / rc=2pass / mbtree=1 / bitrate=7500 / ratetol=1.0 / qcomp=0.60 / qpmin=0 / qpmax=69 / qpstep=4 / cplxblur=20.0 / qblur=0.5 / ip_ratio=1.40 / aq=1:1.00
Default : Да
Forced : Нет
Аудио #1
Идентификатор : 2
Формат : DTS
Формат/Информация : Digital Theater Systems
Режим : 16
Параметр Endianness формата : Big
Идентификатор кодека : A_DTS
Продолжительность : 1 ч. 54 м.
Вид битрейта : Постоянный
Битрейт : 1509 Кбит/сек
Каналы : 6 каналов
Расположение каналов : Front: L C R, Side: L R, LFE
Частота : 48,0 КГц
Битовая глубина : 16 бит
Метод сжатия : С потерями
Размер потока : 1,20 Гбайт (16%)
Язык : English
Default : Да
Forced : Нет
Аудио #2
Идентификатор : 3
Формат : AC-3
Формат/Информация : Audio Coding 3
Расширение режима : CM (complete main)
Параметр Endianness формата : Big
Идентификатор кодека : A_AC3
Продолжительность : 1 ч. 54 м.
Вид битрейта : Постоянный
Битрейт : 640 Кбит/сек
Каналы : 2 канала
Расположение каналов : Front: L R
Частота : 48,0 КГц
Метод сжатия : С потерями
Размер потока : 522 Мбайт (7%)
Язык : English
Default : Нет
Forced : Нет
Меню
00:00:00.000 : :Chapter 01
00:05:22.416 : :Chapter 02
00:11:46.416 : :Chapter 03
00:19:02.833 : :Chapter 04
00:24:27.416 : :Chapter 05
00:29:26.416 : :Chapter 06
00:33:37.625 : :Chapter 07
00:37:54.416 : :Chapter 08
00:41:41.208 : :Chapter 09
00:52:42.000 : :Chapter 10
00:57:04.000 : :Chapter 11
01:01:20.000 : :Chapter 12
01:05:44.833 : :Chapter 13
01:09:58.833 : :Chapter 14
01:14:24.416 : :Chapter 15
01:21:31.625 : :Chapter 16
01:25:20.833 : :Chapter 17
01:31:36.833 : :Chapter 18
01:36:04.416 : :Chapter 19
01:41:25.208 : :Chapter 20
01:47:15.625 : :Chapter 21
01:54:00.000 : :Chapter 22
Скриншоты:
Не жилим спасибо. Не забываем голосовать за трекер!!!


Показать сообщения:    

Текущее время: 24-Авг 06:28

Часовой пояс: UTC + 3


Вы не можете начинать темы
Вы не можете отвечать на сообщения
Вы не можете редактировать свои сообщения
Вы не можете удалять свои сообщения
Вы не можете голосовать в опросах
Вы не можете прикреплять файлы к сообщениям
Вы не можете скачивать файлы

!ВНИМАНИЕ!
Сайт не предоставляет электронные версии произведений, а занимается лишь коллекционированием и каталогизацией ссылок, присылаемых и публикуемых на форуме нашими читателями. Если вы являетесь правообладателем какого-либо представленного материала и не желаете, чтобы ссылка на него находилась в нашем каталоге, свяжитесь с нами, и мы незамедлительно удалим ее. Файлы для обмена на трекере предоставлены пользователями сайта, и администрация не несет ответственности за их содержание. Просьба не заливать файлы, защищенные авторскими правами, а также файлы нелегального содержания!