۩ ‼ Вы находитесь на Бесплатном торрент-трекере TORRNADA.com ۩ Зарегистрируйтесь для получения полного доступа ко всем функциям сайта ! ۩ После регистрации подпишитесь на нашу рассылку в своём профиле ۩
Auto Web Pinger

 

[Цитировать]

Узник Зенды / The Prisoner of Zenda (1979) DVDRip- Производство: США
Жанр: Комедия, приключения, экранизация
Режиссер: Ричард Куайн
Актеры: Питер Селлерс, Линн Фредерик, Лайонел Джеффрис, Эльке Зоммер, Грегори Сьерра, Джереми Кемп, Кэтрин Шелл, Саймон Уильямс, Стюарт Уилсон, Норман Россингтон, Джон Лори, Грэм Старк, Майкл Бальфур, Артур Ховард, Иэн Эберкромби, Майкл Сигал, Гарри Вюштенхаген
Описание:
По мотивам романа Энтони Хоупа. После гибели монарха европейское государство ждёт коронации его сына, игрока и ловеласа Рудольфа. Брат Рудольфа, Майкл, разрабатывает коварный план: он собирается убить Рудольфа и завладеть короной. Верные слуги пытаются спасти наследника, и в этом им сопутствует удача: совершенно неожиданно они встречают е Лондоне кэбмена, как две капли воды похожего на Рудольфа. Они нанимают Сидни Фруина на время, однако, вскоре выясняется, что он не только хорошо управляет лошадьми, но вполне способен управлять страной. Основной сюжет фильма почти повторяет предыдущие экранизации, но написан в комедийном ключе и с несколькими новыми персонажами.

Продолжительность: 01:43:48
Качество видео: HDRip
Перевод: Профессиональный многоголосый
Видео: XviD, 720x368, 2303 Кбит/с
Аудио:
1. AC3, 6 ch, 448 Кбит/с - русский
2. AC3, 2 ch, 192 Кбит/с - английский

MediaInfo:

Общее
Полное имя : C:\NNM\Узник зенды\Uznik zendy 1979 DVDRip.avi
Формат : AVI
Формат/Информация : Audio Video Interleave
Профиль формата : OpenDML
Размер файла : 2,15 Гбайт
Продолжительность : 1 ч. 43 м.
Общий поток : 2962 Кбит/сек
Программа кодирования : FairUse Wizard
Библиотека кодирования : The best and REALLY easy backup tool
Видео
Идентификатор : 0
Формат : MPEG-4 Visual
Профиль формата : Advanced Simple@L5
Параметр BVOP формата : 1
Параметр QPel формата : Нет
Параметр GMC формата : Без точки перехода
Параметр матрицы формата : Default (MPEG)
Режим смешивания : Сжатый битовый поток
Идентификатор кодека : XVID
Идентификатор кодека/Подсказка : XviD
Продолжительность : 1 ч. 43 м.
Битрейт : 2303 Кбит/сек
Ширина : 720 пикселей
Высота : 368 пикселей
Соотношение сторон : 1,957
Частота кадров : 25,000 кадров/сек
Цветовое пространство : YUV
Субдискретизация насыщенности : 4:2:0
Битовая глубина : 8 бит
Тип развёртки : Прогрессивная
Метод сжатия : С потерями
Бит/(Пиксели*Кадры) : 0.348
Размер потока : 1,67 Гбайт (78%)
Библиотека кодирования : XviD 1.2.0.dev47 (UTC 2006-11-01)
Аудио #1
Идентификатор : 1
Формат : AC-3
Формат/Информация : Audio Coding 3
Расширение режима : CM (complete main)
Идентификатор кодека : 2000
Продолжительность : 1 ч. 43 м.
Вид битрейта : Постоянный
Битрейт : 448 Кбит/сек
Каналы : 6 каналов
Расположение каналов : Front: L C R, Side: L R, LFE
Частота : 48,0 КГц
Битовая глубина : 16 бит
Метод сжатия : С потерями
Размер потока : 333 Мбайт (15%)
Выравнивание : Разделение по промежуткам
Продолжительность промежутка : 40 мс. (1,00 видеокадр)
Время предзагрузки промежутка : 500 мс.
Аудио #2
Идентификатор : 2
Формат : AC-3
Формат/Информация : Audio Coding 3
Расширение режима : CM (complete main)
Идентификатор кодека : 2000
Продолжительность : 1 ч. 43 м.
Вид битрейта : Постоянный
Битрейт : 192 Кбит/сек
Каналы : 2 канала
Расположение каналов : Front: L R
Частота : 48,0 КГц
Битовая глубина : 16 бит
Метод сжатия : С потерями
Размер потока : 143 Мбайт (6%)
Выравнивание : Разделение по промежуткам
Продолжительность промежутка : 40 мс. (1,00 видеокадр)
Время предзагрузки промежутка : 500 мс.
Скриншоты: Не жилим спасибо. Не забываем голосовать за трекер!!!


Показать сообщения:    

Текущее время: 23-Авг 07:48

Часовой пояс: UTC + 3


Вы не можете начинать темы
Вы не можете отвечать на сообщения
Вы не можете редактировать свои сообщения
Вы не можете удалять свои сообщения
Вы не можете голосовать в опросах
Вы не можете прикреплять файлы к сообщениям
Вы не можете скачивать файлы

!ВНИМАНИЕ!
Сайт не предоставляет электронные версии произведений, а занимается лишь коллекционированием и каталогизацией ссылок, присылаемых и публикуемых на форуме нашими читателями. Если вы являетесь правообладателем какого-либо представленного материала и не желаете, чтобы ссылка на него находилась в нашем каталоге, свяжитесь с нами, и мы незамедлительно удалим ее. Файлы для обмена на трекере предоставлены пользователями сайта, и администрация не несет ответственности за их содержание. Просьба не заливать файлы, защищенные авторскими правами, а также файлы нелегального содержания!