۩ ‼ Вы находитесь на Бесплатном торрент-трекере TORRNADA.com ۩ Зарегистрируйтесь для получения полного доступа ко всем функциям сайта ! ۩ После регистрации подпишитесь на нашу рассылку в своём профиле ۩
Auto Web Pinger

 

[Цитировать]

Geekbrains | Java. Уровень 0 (2015) PCRec [H.264/720p-LQ] - Автор (режиссер): Geekbrains
Жанр: Программирование, Java
Описание: ООП или объектно-ориентированное программирование — это основа любого современного языка программирования. Мы будем изучать его на примере языка Java, что, например, впоследствии поможет вам перейти к разработке своих мобильных приложений под Андроид. Курс предназначен для совершенных новичков в программировании, для тех, кто хочет быстро освоить основы Объектно-ориентированного программирования. Главной особенностью курса является сочетание изучения теоретических основ языка Java и практических онлайн-тренировок под руководством преподавателя. Курс специально разработан для тех, кто ценит свое время и готов выделить один выходной в неделю, чтобы с головой окунуться в программирование на 7-8 часов. Два таких занятия с перерывом в неделю для самостоятельной работы и составляют крайне эффективное ноу-хау этого курса.
Продолжительность: 15:58:32
Качество видео: PCRec
Видео: AVC/H.264, 1280x720, ~71.6 Kbps
Аудио: AAC, 2 ch, 64.0 Kbps

Чему вы научитесь

  • Начнёте мыслить в терминах Объектно-ориентированного программирования
  • Ознакомитесь с одним из самых популярных и востребованных языков программирования - Java
  • Узнаете, как преобразовать программу из обычного процедурного вида в ООП
  • Научитесь выделять главное при объектно-ориентированном программировании так, чтобы не допускать основных архитектурных ошибок
  • Выполните ДЗ между занятиями, и получите консультации по типичным ошибкам
  • Подготовите описание вашей программы на языке UML
  • Потренируетесь совместно с преподавателем на уроке составлять программы в ООП-стиле
  • Разберетесь с такими понятиями, как объект, экземпляр, наследование, полиморфизм, инкапсуляция, и научитесь их практическому применению в программах
  • Создадите свою программу-игру с нуля
  • Потренируетесь в одном из наиболее эффективных способов проектирования программ, узнаете, когда необходимо использовать наследование, когда композицию, а когда реализовывать интерфейсы

Программа курса

Урок 1. Часть 1 - Базовые понятия; Часть 2 - Приступаем к ООП; Часть 3 - Основы ООП.
Часть 1 Установка Oracle SDK и среды разработки IntelliJ IDEA. Принципы оформления: встречают по одежке, провожают по уму. Что такое классы? Что такое переменные, зачем нужны, какие бывают и как применять? Условные выражения. Основы ввода-вывода в Java. Циклы в Java. Массивы в Java. Перерыв 5 мин. Совместное написание первой программы в процедурном стиле. Что такое функции и методы. Передача параметров по ссылке и по значению. Основы ООП: классы и экземпляры классов. Перерыв 1 час на обед. Часть 2 Инкапсуляция, права доступа и модификаторы. Что такое наследование, как реализуется в Java и как отображается в UML. Сила полиморфизма. Сравнение объектов (equals и == ). Перерыв 1 час на обед. Часть 3 Конструкторы. Диаграмма классов в UML. Преобразуем нашу программу в соответствии с принципами ООП. Обсуждаем ДЗ на ближайшую неделю. Перерыв 1 неделя.-Урок 2. Часть 1 - разбор ДЗ; Часть 2 - Углубленное ООП; Часть 3 - совместное написание программы.
Часть 1 Разбор Домашнего задания, которое прислали участники курса. Исправление стандартных ошибок, помощь в проектировании. Поиски оптимальных решений по сделанному ДЗ. Перерыв 5 мин. Часть 2 Инкапсуляция, права доступа и модификаторы. Что такое наследование, как реализуется в Java и как отображается в UML. Сила полиморфизма. Сравнение объектов [equals и ==]. Перерыв 1 час на обед. Часть 3 Статические методы и переменные. Пишем вторую программу сразу в ООП-стиле! Обсуждаем ДЗ для самостоятельной работы вне курса.

Mediainfo:

D:\Раздачи\Geekbrains_java_0\Урок 1\Урок 1.1.mp4
   General
      Complete name : D:\Раздачи\Geekbrains_java_0\Урок 1\Урок 1.1.mp4
      Format : MPEG-4
      Format profile : Base Media
      Codec ID : isom
      File size : 253 MiB
      Duration : 4h 8mn
      Overall bit rate : 143 Kbps
      Performer : "Recording #836047"
      Writing application : Lavf54.29.104
   Video #1
      ID : 1
      Format : AVC
      Format/Info : Advanced Video Codec
      Format profile : Main@L3.1
      Format settings, CABAC : Yes
      Format settings, ReFrames : 4 frames
      Codec ID : avc1
      Codec ID/Info : Advanced Video Coding
      Duration : 4h 8mn
      Bit rate : 71.6 Kbps
      Width : 1 280 pixels
      Height : 720 pixels
      Display aspect ratio : 16:9
      Frame rate mode : Variable
      Frame rate : 15.000 fps
      Minimum frame rate : 14.925 fps
      Maximum frame rate : 15.152 fps
      Color space : YUV
      Chroma subsampling : 4:2:0
      Bit depth : 8 bits
      Scan type : Progressive
      Bits/(Pixel*Frame) : 0.005
      Stream size : 127 MiB (50%)
      Writing library : x264 core 132
   Audio #2
      ID : 2
      Format : AAC
      Format/Info : Advanced Audio Codec
      Format profile : LC
      Codec ID : 40
      Duration : 4h 8mn
      Source duration : 4h 8mn
      Bit rate mode : Constant
      Bit rate : 64.0 Kbps
      Channel(s) : 2 channels
      Channel positions : Front: L R
      Sampling rate : 44.1 KHz
      Compression mode : Lossy
      Stream size : 114 MiB (45%)
      Source stream size : 114 MiB (45%)
Скриншоты:
Не жилим спасибо. Не забываем голосовать за трекер!!!


Показать сообщения:    

Текущее время: 27-Май 10:11

Часовой пояс: UTC + 3


Вы не можете начинать темы
Вы не можете отвечать на сообщения
Вы не можете редактировать свои сообщения
Вы не можете удалять свои сообщения
Вы не можете голосовать в опросах
Вы не можете прикреплять файлы к сообщениям
Вы не можете скачивать файлы

!ВНИМАНИЕ!
Сайт не предоставляет электронные версии произведений, а занимается лишь коллекционированием и каталогизацией ссылок, присылаемых и публикуемых на форуме нашими читателями. Если вы являетесь правообладателем какого-либо представленного материала и не желаете, чтобы ссылка на него находилась в нашем каталоге, свяжитесь с нами, и мы незамедлительно удалим ее. Файлы для обмена на трекере предоставлены пользователями сайта, и администрация не несет ответственности за их содержание. Просьба не заливать файлы, защищенные авторскими правами, а также файлы нелегального содержания!