۩ ‼ Вы находитесь на Бесплатном торрент-трекере TORRNADA.com ۩ Зарегистрируйтесь для получения полного доступа ко всем функциям сайта ! ۩ После регистрации подпишитесь на нашу рассылку в своём профиле ۩
Auto Web Pinger

 

[Цитировать]

Перевод: Не требуется, cубтитры: отсутствуют
Формат: WEBRip, MKV, H.264, AAC
Страна: Россия
Режиссер: Наталья Чумакова, Анна Цирлина
Жанр: документальный, культура и искусство
Продолжительность: 01:20:13
Год выпуска: 2014
В ролях: Егор Летов, Сергей Летов, Александр «Иваныч» Рожков, Валерий «Валерыч» Рожков, Сергей Жариков, Константин «Кузьма» Рябинов, Ирина Рябинова, Олег «Манагер» Судаков, Вадим «Лукич» Кузьмин...
Описание: Фильм «Здорово и вечно» — первый и единственный фильм, посвященный ранним годам группы «Гражданская Оборона», режиссерский дебют Натальи Чумаковой, бас-гитаристки группы и вдовы Егора Летова, и Анны Цирлиной. В основу фильма легли уникальные съемки, сделанные участниками группы, интервью с людьми, принимавшими активное участие в судьбе «Обороны» на начальном этапе, редкие архивные кадры. Режиссеры фильма сделали почти невозможное — собрали внятный и ослепительно живой рассказ о том, как Игорь Летов стал Егором Летовым, фиксирующий происходившее с ним и его кругом с начала 80-х по начало 90-х. «Здорово и вечно» — это не документальный байопик в строгом смысле слова, но скорее успешная попытка поймать мятежный дух времени и людей, которые ломали это время под себя...
Видео: 1280x720 (16:9), 25 fps, AVC (x264), High@L3.1, 2226 kbps, 0.097 bit/pixel
Аудио: 48 kHz, AAC, 2 ch, 147 kbps

MediaInfo:

General
Complete name : Здорово и вечно.mkv
Format : MPEG-4
Format profile : Base Media / Version 2
Codec ID : mp42
File size : 1.33 GiB
Duration : 1h 20mn
Overall bit rate mode : Variable
Overall bit rate : 2 377 Kbps
Encoded date : UTC 2015-03-19 09:47:33
Tagged date : UTC 2015-03-19 09:47:33
Video #1
ID : 1
Format : AVC
Format/Info : Advanced Video Codec
Format profile : High@L3.1
Format settings, CABAC : Yes
Format settings, ReFrames : 4 frames
Codec ID : avc1
Codec ID/Info : Advanced Video Coding
Duration : 1h 20mn
Bit rate : 2 226 Kbps
Width : 1 280 pixels
Height : 720 pixels
Display aspect ratio : 16:9
Frame rate mode : Constant
Frame rate : 25.000 fps
Color space : YUV
Chroma subsampling : 4:2:0
Bit depth : 8 bits
Scan type : Progressive
Bits/(Pixel*Frame) : 0.097
Stream size : 1.25 GiB (94%)
Writing library : x264 core 144 r11 40bb568
Encoding settings : cabac=1 / ref=3 / deblock=1:0:0 / analyse=0x3:0x113 / me=hex / subme=7 / psy=1 / psy_rd=1.00:0.00 / mixed_ref=1 / me_range=16 / chroma_me=1 / trellis=1 / 8x8dct=1 / cqm=0 / deadzone=21,11 / fast_pskip=1 / chroma_qp_offset=-2 / threads=48 / lookahead_threads=5 / sliced_threads=0 / nr=0 / decimate=1 / interlaced=0 / bluray_compat=0 / stitchable=1 / constrained_intra=0 / bframes=3 / b_pyramid=2 / b_adapt=1 / b_bias=0 / direct=1 / weightb=1 / open_gop=0 / weightp=2 / keyint=infinite / keyint_min=25 / scenecut=40 / intra_refresh=0 / rc_lookahead=40 / rc=crf / mbtree=1 / crf=20.0 / qcomp=0.60 / qpmin=5 / qpmax=69 / qpstep=4 / vbv_maxrate=2750 / vbv_bufsize=7500 / crf_max=0.0 / nal_hrd=none / filler=0 / ip_ratio=1.40 / aq=1:1.00
Encoded date : UTC 2015-03-19 09:47:33
Tagged date : UTC 2015-03-19 09:47:33
Color primaries : BT.709
Transfer characteristics : BT.709
Matrix coefficients : BT.709
Audio #2
ID : 2
Format : AAC
Format/Info : Advanced Audio Codec
Format profile : LC
Codec ID : 40
Duration : 1h 20mn
Bit rate mode : Variable
Bit rate : 147 Kbps
Channel(s) : 2 channels
Channel positions : Front: L R
Sampling rate : 48.0 KHz
Compression mode : Lossy
Delay relative to video : 80ms
Stream size : 84.4 MiB (6%)
Encoded date : UTC 2015-03-19 09:47:33
Tagged date : UTC 2015-03-19 09:47:33Закрыть

Показать скриншоты





Закрыть
Не жилим спасибо. Не забываем голосовать за трекер!!!


Показать сообщения:    

Текущее время: 24-Май 22:20

Часовой пояс: UTC + 3


Вы не можете начинать темы
Вы не можете отвечать на сообщения
Вы не можете редактировать свои сообщения
Вы не можете удалять свои сообщения
Вы не можете голосовать в опросах
Вы не можете прикреплять файлы к сообщениям
Вы не можете скачивать файлы

!ВНИМАНИЕ!
Сайт не предоставляет электронные версии произведений, а занимается лишь коллекционированием и каталогизацией ссылок, присылаемых и публикуемых на форуме нашими читателями. Если вы являетесь правообладателем какого-либо представленного материала и не желаете, чтобы ссылка на него находилась в нашем каталоге, свяжитесь с нами, и мы незамедлительно удалим ее. Файлы для обмена на трекере предоставлены пользователями сайта, и администрация не несет ответственности за их содержание. Просьба не заливать файлы, защищенные авторскими правами, а также файлы нелегального содержания!