۩ ‼ Вы находитесь на Бесплатном торрент-трекере TORRNADA.com ۩ Зарегистрируйтесь для получения полного доступа ко всем функциям сайта ! ۩ После регистрации подпишитесь на нашу рассылку в своём профиле ۩
Auto Web Pinger

 

[Цитировать]

Великий гипнотизёр / Cui mian da shi (2014) BDRip - Производство: Китай | Wanda Media Co.
Жанр: Триллер, Драма, Детектив
Режиссер: Лэсте Чэнь
Актеры: Джин Ху, Жонг Люй, Карен Мок, Яоцин Ван, Сюй Чжэн
Описание:
История об известном психологе с блестящей карьерой. Однажды он сталкивается с проблемным пациентом, встречи с которым даются ему непросто…

Продолжительность: 01:41:29
Качество видео: BDRip
Перевод: Одноголосый закадровый, авторский (Дольский), Любительский одноголосый [DoramaStar (Н. Пушкарёва)]
Язык субтитров: Русский, Английский
Вид субтитров: Вшитые, отключаемые
Видео: AVC/H.264, 1280х536 (2.40:1), 24.000 fps, ~4980 kbps, 0.302 bit/ pixel
Аудио №1: 48 kHz, AC3, 6 ch, ~640 kbps, CBR | AVO (А. Дольский)
Аудио №2: 48 kHz, AC3, 2 ch, ~192 kbps, CBR | VO (DoramaStar)
Аудио №3: 48 kHz, AC3, 6 ch, ~640 kbps, CBR | Китайский

Mediainfo:

General
Unique ID                      : 220061738372803265494803087097123172467 (0xA58E5962324B8553AD56FA45D551F073)
Complete name                  : C:\Фильмы\Velikiy. gipnotizer.2014.BDRip 720p.mkv
Format                         : Matroska
Format version                 : Version 2
File size                      : 4.57 GiB
Duration                       : 1h 41mn
Overall bit rate               : 6 452 Kbps
Encoded date                   : UTC 2015-07-03 16:13:31
Writing application            : mkvmerge v5.8.0 ('No Sleep / Pillow') built on Sep  2 2012 15:37:04
Writing library                : libebml v1.2.3 + libmatroska v1.3.0
Video
ID                             : 1
Format                         : AVC
Format/Info                    : Advanced Video Codec
Format profile                 : High@L4.1
Format settings, CABAC         : Yes
Format settings, ReFrames      : 12 frames
Codec ID                       : V_MPEG4/ISO/AVC
Duration                       : 1h 41mn
Bit rate                       : 4 980 Kbps
Width                          : 1 280 pixels
Height                         : 536 pixels
Display aspect ratio           : 2.40:1
Frame rate mode                : Constant
Frame rate                     : 24.000 fps
Color space                    : YUV
Chroma subsampling             : 4:2:0
Bit depth                      : 8 bits
Scan type                      : Progressive
Bits/(Pixel*Frame)             : 0.302
Stream size                    : 3.44 GiB (75%)
Writing library                : x264 core 142 r2431 ac76440
Encoding settings              : cabac=1 / ref=12 / deblock=1:-3:-3 / analyse=0x3:0x133 / me=umh / subme=10 / psy=1 / psy_rd=1.00:0.15 / mixed_ref=1 / me_range=24 / chroma_me=1 / trellis=2 / 8x8dct=1 / cqm=0 / deadzone=21,11 / fast_pskip=1 / chroma_qp_offset=-3 / threads=36 / lookahead_threads=4 / sliced_threads=0 / nr=0 / decimate=1 / interlaced=0 / bluray_compat=0 / constrained_intra=0 / bframes=8 / b_pyramid=2 / b_adapt=2 / b_bias=0 / direct=3 / weightb=1 / open_gop=0 / weightp=2 / keyint=240 / keyint_min=24 / scenecut=40 / intra_refresh=0 / rc_lookahead=60 / rc=2pass / mbtree=1 / bitrate=4980 / ratetol=1.0 / qcomp=0.60 / qpmin=10 / qpmax=51 / qpstep=4 / cplxblur=20.0 / qblur=0.5 / vbv_maxrate=45000 / vbv_bufsize=45000 / nal_hrd=none / filler=0 / ip_ratio=1.40 / aq=1:1.00
Language                       : Chinese
Default                        : No
Forced                         : No
Audio #1
ID                             : 2
Format                         : AC-3
Format/Info                    : Audio Coding 3
Mode extension                 : CM (complete main)
Format settings, Endianness    : Big
Codec ID                       : A_AC3
Duration                       : 1h 41mn
Bit rate mode                  : Constant
Bit rate                       : 640 Kbps
Channel(s)                     : 6 channels
Channel positions              : Front: L C R, Side: L R, LFE
Sampling rate                  : 48.0 KHz
Bit depth                      : 16 bits
Compression mode               : Lossy
Stream size                    : 465 MiB (10%)
Title                          : AVO (А. Дольский)
Language                       : Russian
Default                        : No
Forced                         : No
Audio #2
ID                             : 3
Format                         : AC-3
Format/Info                    : Audio Coding 3
Mode extension                 : CM (complete main)
Format settings, Endianness    : Big
Codec ID                       : A_AC3
Duration                       : 1h 41mn
Bit rate mode                  : Constant
Bit rate                       : 192 Kbps
Channel(s)                     : 2 channels
Channel positions              : Front: L R
Sampling rate                  : 48.0 KHz
Bit depth                      : 16 bits
Compression mode               : Lossy
Stream size                    : 139 MiB (3%)
Title                          : VO [DoramaStar]
Language                       : Russian
Default                        : No
Forced                         : No
Audio #3
ID                             : 4
Format                         : AC-3
Format/Info                    : Audio Coding 3
Mode extension                 : CM (complete main)
Format settings, Endianness    : Big
Codec ID                       : A_AC3
Duration                       : 1h 41mn
Bit rate mode                  : Constant
Bit rate                       : 640 Kbps
Channel(s)                     : 6 channels
Channel positions              : Front: L C R, Side: L R, LFE
Sampling rate                  : 48.0 KHz
Bit depth                      : 16 bits
Compression mode               : Lossy
Stream size                    : 465 MiB (10%)
Title                          : Mandarin
Language                       : Chinese
Default                        : No
Forced                         : No
Text #1
ID                             : 5
Format                         : UTF-8
Codec ID                       : S_TEXT/UTF8
Codec ID/Info                  : UTF-8 Plain Text
Language                       : English
Default                        : No
Forced                         : No
Text #2
ID                             : 6
Format                         : UTF-8
Codec ID                       : S_TEXT/UTF8
Codec ID/Info                  : UTF-8 Plain Text
Title                          : [julz_nsk]
Language                       : Russian
Default                        : No
Forced                         : No
Text #3
ID                             : 7
Format                         : ASS
Codec ID                       : S_TEXT/ASS
Codec ID/Info                  : Advanced Sub Station Alpha
Compression mode               : Lossless
Title                          : [HENTAI]
Language                       : Russian
Default                        : No
Forced                         : No
Menu
00:00:00.000                   : en:Chapter 01
00:08:00.208                   : en:Chapter 02
00:13:46.916                   : en:Chapter 03
00:18:17.000                   : en:Chapter 04
00:23:09.166                   : en:Chapter 05
00:27:47.416                   : en:Chapter 06
00:31:45.833                   : en:Chapter 07
00:36:59.250                   : en:Chapter 08
00:40:44.416                   : en:Chapter 09
00:47:43.041                   : en:Chapter 10
00:53:07.666                   : en:Chapter 11
00:57:16.208                   : en:Chapter 12
01:01:28.250                   : en:Chapter 13
01:04:57.500                   : en:Chapter 14
01:12:12.083                   : en:Chapter 15
01:17:50.208                   : en:Chapter 16
01:19:34.125                   : en:Chapter 17
01:26:53.958                   : en:Chapter 18
01:31:43.250                   : en:Chapter 19
01:34:09.458                   : en:Chapter 20
01:41:28.416                   : en:Chapter 21
Скриншоты:
Не жилим спасибо. Не забываем голосовать за трекер!!!


Показать сообщения:    

Текущее время: 25-Май 09:58

Часовой пояс: UTC + 3


Вы не можете начинать темы
Вы не можете отвечать на сообщения
Вы не можете редактировать свои сообщения
Вы не можете удалять свои сообщения
Вы не можете голосовать в опросах
Вы не можете прикреплять файлы к сообщениям
Вы не можете скачивать файлы

!ВНИМАНИЕ!
Сайт не предоставляет электронные версии произведений, а занимается лишь коллекционированием и каталогизацией ссылок, присылаемых и публикуемых на форуме нашими читателями. Если вы являетесь правообладателем какого-либо представленного материала и не желаете, чтобы ссылка на него находилась в нашем каталоге, свяжитесь с нами, и мы незамедлительно удалим ее. Файлы для обмена на трекере предоставлены пользователями сайта, и администрация не несет ответственности за их содержание. Просьба не заливать файлы, защищенные авторскими правами, а также файлы нелегального содержания!