۩ ‼ Вы находитесь на Бесплатном торрент-трекере TORRNADA.com ۩ Зарегистрируйтесь для получения полного доступа ко всем функциям сайта ! ۩ После регистрации подпишитесь на нашу рассылку в своём профиле ۩
Auto Web Pinger

 

[Цитировать]

Лицо ангела / The Face of an Angel (2014) WEB-DL [H.264/1080p-LQ]«Forget the truth, find the story»- Производство: Великобритания, Италия, Испания / BBC Films, Cattleya, Multitrade
Жанр: триллер
Режиссер: Майкл Уинтерботтом
Продюсер: Мелисса Парментер, Эрик Анидьяр, Леон Бенарроч
Актеры: Кейт Бекинсейл, Даниэль Брюль, Кара Делевинь, Ава Акрес, Рози Феллнер, Питер Салливан, Сай Беннетт, Джон Хопкинс, Алистер Петри, Валерио Мастандреа, Коррадо Инверницци, Андреа Тидона
Описание:
После прогремевшего на весь мир убийства молодой девушки, в итальянский город Перуджа приезжает молодой режиссер для подготовки к съемкам фильма по мотивам преступления. Там он знакомится с американской журналисткой Симоной Форд, недавно написавшей об этом противоречивую книгу. В городе правят бал обезумевшие репортеры со всего мира, вываливающие на своих зрителей у телеэкранов груды «грязного белья» в погоне за кричащими заголовками. А об убитой девушке абсолютно забыли...

Возраст: 18+
Дата мировой премьеры: 6 сентября 2014
Дата российской премьеры: 25 июня 2015, «Top Film Distribution»
Продолжительность: 01:41:28
Качество: WEB-DL (1080p)
Перевод: профессиональный (многоголосый закадровый)
Язык субтитров: английский
Вид субтитров: вшитые, отключаемые
Видео: MPEG-4 AVC/H.264, 1916x800 (2,40:1), 4 319 kbps, 24.000 fps, 0.117 b/px
Аудио # 1: АС3, 2 ch, 128 kbps, 48 000 Hz - MVO
Аудио # 2: АС3, 6 ch, 384 kbps, 48 000 Hz - Original - English

MediaInfo

Общее
Уникальный идентификатор                 : 236542555462407012890867599430033962988 (0xB1F47066CE4C5AF9A35E0F6A82A977EC)
Полное имя                               : F:\The.Face.of.an.Angel.2014.P.WEB-DL.1080p.mkv
Формат                                   : Matroska
Версия формата                           : Version 4 / Version 2
Размер файла                             : 3,49 Гбайт
Продолжительность                        : 1 ч. 41 м.
Общий поток                              : 4929 Кбит/сек
Дата кодирования                         : UTC 2015-07-10 09:07:58
Программа кодирования                    : mkvmerge v6.5.0 ('Isn't she lovely') built on Oct 20 2013 12:50:05
Библиотека кодирования                   : libebml v1.3.0 + libmatroska v1.4.1
Attachements                             : cover.jpeg
Видео
Идентификатор                            : 1
Формат                                   : AVC
Формат/Информация                        : Advanced Video Codec
Профиль формата                          : High@L4
Параметр CABAC формата                   : Да
Параметр ReFrames формата                : 5 кадров
Идентификатор кодека                     : V_MPEG4/ISO/AVC
Продолжительность                        : 1 ч. 41 м.
Битрейт                                  : 4319 Кбит/сек
Ширина                                   : 1916 пикселей
Высота                                   : 800 пикселей
Соотношение сторон                       : 2,40:1
Режим частоты кадров                     : Постоянный
Частота кадров                           : 24,000 кадра/сек
Цветовое пространство                    : YUV
Субдискретизация насыщенности            : 4:2:0
Битовая глубина                          : 8 бит
Тип развёртки                            : Прогрессивная
Бит/(Пиксели*Кадры)                      : 0.117
Размер потока                            : 3,06 Гбайт (88%)
Заголовок                                : The.Face.of.an.Angel.2014.1080p.WEB-DL.DD5.1.H.264.RARBG
Язык                                     : English
Default                                  : Да
Forced                                   : Нет
Цветовой диапазон                        : Limited
Основные цвета                           : BT.709
Характеристики трансфера                 : BT.709
Коэффициенты матрицы                     : BT.709
Аудио #1
Идентификатор                            : 2
Формат                                   : AC-3
Формат/Информация                        : Audio Coding 3
Расширение режима                        : CM (complete main)
Параметр Endianness формата              : Big
Идентификатор кодека                     : A_AC3
Продолжительность                        : 1 ч. 41 м.
Вид битрейта                             : Постоянный
Битрейт                                  : 128 Кбит/сек
Каналы                                   : 2 канала
Расположение каналов                     : Front: L R
Частота                                  : 48,0 КГц
Метод сжатия                             : С потерями
Размер потока                            : 92,9 Мбайт (3%)
Язык                                     : Russian
Default                                  : Да
Forced                                   : Нет
Аудио #2
Идентификатор                            : 3
Формат                                   : AC-3
Формат/Информация                        : Audio Coding 3
Расширение режима                        : CM (complete main)
Параметр Endianness формата              : Big
Идентификатор кодека                     : A_AC3
Продолжительность                        : 1 ч. 41 м.
Вид битрейта                             : Постоянный
Битрейт                                  : 384 Кбит/сек
Каналы                                   : 6 каналов
Расположение каналов                     : Front: L C R, Side: L R, LFE
Частота                                  : 48,0 КГц
Метод сжатия                             : С потерями
Размер потока                            : 279 Мбайт (8%)
Язык                                     : English
Default                                  : Нет
Forced                                   : Нет
Текст
Идентификатор                            : 4
Формат                                   : UTF-8
Идентификатор кодека                     : S_TEXT/UTF8
Идентификатор кодека/Информация          : UTF-8 Plain Text
Заголовок                                : English
Язык                                     : English
Default                                  : Нет
Forced                                   : Нет

Интересные факты

*** Колин Фёрт мог исполнить роль, которая в итоге досталась Даниэлю Брюлю.
Скриншоты:
Не жилим спасибо. Не забываем голосовать за трекер!!!

Топик был перенесен из форума Триллер в форум Зарубежное кино (HD Video)
LEONARDO


Показать сообщения:    

Текущее время: 25-Май 10:55

Часовой пояс: UTC + 3


Вы не можете начинать темы
Вы не можете отвечать на сообщения
Вы не можете редактировать свои сообщения
Вы не можете удалять свои сообщения
Вы не можете голосовать в опросах
Вы не можете прикреплять файлы к сообщениям
Вы не можете скачивать файлы

!ВНИМАНИЕ!
Сайт не предоставляет электронные версии произведений, а занимается лишь коллекционированием и каталогизацией ссылок, присылаемых и публикуемых на форуме нашими читателями. Если вы являетесь правообладателем какого-либо представленного материала и не желаете, чтобы ссылка на него находилась в нашем каталоге, свяжитесь с нами, и мы незамедлительно удалим ее. Файлы для обмена на трекере предоставлены пользователями сайта, и администрация не несет ответственности за их содержание. Просьба не заливать файлы, защищенные авторскими правами, а также файлы нелегального содержания!