۩ ‼ Вы находитесь на Бесплатном торрент-трекере TORRNADA.com ۩ Зарегистрируйтесь для получения полного доступа ко всем функциям сайта ! ۩ После регистрации подпишитесь на нашу рассылку в своём профиле ۩
Auto Web Pinger

 

[Цитировать]

Дом / Home (2015) WEB-DLRip [576p] iPad
«Контакт неизбежен»
- Год выпуска: 2015
Производство: США
Жанр: Мультфильм, фантастика, фэнтези, комедия, приключения, семейный
Продолжительность: 01:34:23
Перевод: Дублированный (iTunes)
Cубтитры: Русские форсированные, украинские форсированные, русские полные, украинские полные, английские полные
Режиссер: Тим Джонсон
Актеры: Джим Парсонс, Рианна, Стив Мартин, Дженнифер Лопез, Мэтт Джонс, Брайан Степанек, Эйприл Стрюбинг, Стивен Кеарин, Лиза Стюарт, Эйприл Уинчелл
Мировая премьера: 7 марта 2015

Описание: Захватив Землю, раса пришельцев Був тут же начинает заниматься её благоустройством и реорганизацией. «Не стоит благодарности!» — заявляют они землянам, собранным на время в отдельных резервациях. Находчивая и рисковая девочка по имени Дар, чудом сбежавшая от пришельцев, встречает на своем пути самого раздражающе-оптимистичного Бува по имени О, отвергнутого своими инопланетными собратьями. Этой, казалось бы, несовместимой парочке предстоит спасти нашу планету. Хорошо, что у них есть летающий автомобиль!-Качество: WEB-DLRip
Контейнер: M4V
Видео: H.264, 1024x544, 1.882, 2 200 Kbps, 23.976 fps
Аудио 1: Русский/Дублированный (iTunes), AAC / 2.0 / 156 Kbps / 48.0 KHz
Аудио 2: Английский/Оригинальная дорожка , AAC / 2.0 / 155 Kbps / 48.0 KHz
Аудио 3: Украинский/Дублированный (iTunes), AAC / 2.0 / 156 Kbps / 48.0 KHz
Язык субтитров: Русский, Украинский, Английский
Вид субтитров: Вшитые (полные, форсированные, отключаемые)-

iTunes Meta Tags

Sort Name: Home
XID: Apple:vendor_id:2015-688384
contentID: 970125198
Copyright: © 2015 DreamWorks Animation, L.L.C. All rights reserved.
Screenwriters: Том Дж. Эстл, Мэтт Эмбер, Адам Рекс
Producers: Сюзанн Бёрги, Мирей Сория
Director: Тим Джонсон
Cast: Джим Парсонс, Рианна, Стив Мартин, Дженнифер Лопез, Мэтт Джонс, Брайан Степанек, Эйприл Стрюбинг, Стивен Кеарин, Лиза Стюарт, Эйприл Уинчелл
Studio: DreamWorks
Rating: 9
Long Description: Захватив Землю, раса пришельцев Був тут же начинает заниматься её благоустройством и реорганизацией. \"Не стоит благодарности!\" - заявляют они землянам, собранным на время в отдельных резервациях. Находчивая и рисковая девочка по имени Дар, чудом сбежавшая от пришельцев, встречает на своем пути самого раздражающе-оптимистичного Бува по имени О, отвергнутого своими инопланетными собратьями. Этой, казалось бы, несовместимой парочке предстоит спасти нашу планету. Хорошо, что у них есть летающий автомобиль!
Description: Захватив Землю, раса пришельцев Був тут же начинает заниматься её благоустройством и реорганизацией...
Release Date: 2015-03-07T08:00:00Z
Genre: Kids & Family
Artist: Tim Johnson
Name: Home (2015)

MediaInfo

General
Complete name                            : /Users/imac/HandBrake/Home.(SD).(pk).m4v
Format                                   : MPEG-4
Codec ID                                 : M4V
File size                                : 1.76 GiB
Duration                                 : 1h 34mn
Overall bit rate mode                    : Variable
Overall bit rate                         : 2 676 Kbps
Movie name                               : Home (2015)
Performer                                : Tim Johnson
Genre                                    : Kids & Family
Recorded date                            : UTC 2015-03-07 08:00:00
Encoded date                             : UTC 2015-05-23 21:30:08
Tagged date                              : UTC 2015-05-23 23:04:44
Copyright                                : © 2015 DreamWorks Animation, L.L.C. All rights reserved.
Cover                                    : Yes
sonm                                     : Home
desc                                     : Захватив Землю, раса пришельцев Був тут же начинает заниматься её благоустройством и реорганизацией...
ldes                                     : Захватив Землю, раса пришельцев Був тут же начинает заниматься её благоустройством и реорганизацией. \"Не стоит благодарности!\" - заявляют они землянам, собранным на время в отдельных резервациях. Находчивая и рисковая девочка по имени Дар, чудом сбежавшая от пришельцев, встречает на своем пути самого раздражающе-оптимистичного Бува по имени О, отвергнутого своими инопланетными собратьями. Этой, казалось бы, несовместимой парочке предстоит спасти нашу планету. Хорошо, что у них есть летающий автомобиль!
stik                                     : 9
rtng                                     : 0
cnID                                     : 970125198
xid                                      : Apple:vendor_id:2015-688384
iTunEXTC                                 : mpaa|PG|200|
iTunMOVI                                 :  /  /  /  /   cast /   /     /       name /       Джим Парсонс /     /     /       name /       Рианна /     /     /       name /       Стив Мартин /     /     /       name /       Дженнифер Лопез /     /     /       name /       Мэтт Джонс /     /     /       name /       Брайан Степанек /     /     /       name /       Эйприл Стрюбинг /     /     /       name /       Стивен Кеарин /     /     /       name /       Лиза Стюарт /     /     /       name /       Эйприл Уинчелл /     /   /   directors /   /     /       name /       Тим Джонсон /     /   /   producers /   /     /       name /       Сюзанн Бёрги /     /     /       name /       Мирей Сория /     /   /   screenwriters /   /     /       name /       Том Дж. Эстл /     /     /       name /       Мэтт Эмбер /     /     /       name /       Адам Рекс /     /   /   studio /   DreamWorks /  /
Video #1
ID                                       : 1
Format                                   : AVC
Format/Info                              : Advanced Video Codec
Format profile                           : High@L3.2
Format settings, CABAC                   : Yes
Format settings, ReFrames                : 9 frames
Codec ID                                 : avc1
Codec ID/Info                            : Advanced Video Coding
Duration                                 : 1h 34mn
Bit rate mode                            : Variable
Bit rate                                 : 2 200 Kbps
Width                                    : 1 024 pixels
Height                                   : 544 pixels
Display aspect ratio                     : 1.882
Frame rate mode                          : Variable
Frame rate                               : 23.976 fps
Minimum frame rate                       : 23.810 fps
Maximum frame rate                       : 24.390 fps
Color space                              : YUV
Chroma subsampling                       : 4:2:0
Bit depth                                : 8 bits
Scan type                                : Progressive
Bits/(Pixel*Frame)                       : 0.165
Stream size                              : 1.45 GiB (82%)
Writing library                          : x264 core 142 r2479 dd79a61
Encoding settings                        : cabac=1 / ref=9 / deblock=1:0:0 / analyse=0x3:0x113 / me=umh / subme=9 / psy=1 / psy_rd=1.00:0.00 / mixed_ref=1 / me_range=32 / chroma_me=1 / trellis=1 / 8x8dct=1 / cqm=0 / deadzone=21,11 / fast_pskip=1 / chroma_qp_offset=-2 / threads=12 / lookahead_threads=1 / sliced_threads=0 / nr=0 / decimate=1 / interlaced=0 / bluray_compat=0 / constrained_intra=0 / bframes=6 / b_pyramid=2 / b_adapt=2 / b_bias=0 / direct=1 / weightb=1 / open_gop=0 / weightp=2 / keyint=240 / keyint_min=24 / scenecut=40 / intra_refresh=0 / rc_lookahead=40 / rc=2pass / mbtree=1 / bitrate=2200 / ratetol=1.0 / qcomp=0.60 / qpmin=0 / qpmax=69 / qpstep=4 / cplxblur=20.0 / qblur=0.5 / ip_ratio=1.40 / aq=1:1.00
Language                                 : Russian
Encoded date                             : UTC 2015-05-23 21:30:08
Tagged date                              : UTC 2015-05-23 21:30:16
Color primaries                          : BT.709-5, BT.1361, IEC 61966-2-4, SMPTE RP177
Transfer characteristics                 : BT.709-5, BT.1361
Matrix coefficients                      : BT.709-5, BT.1361, IEC 61966-2-4 709, SMPTE RP177
Video #2
ID                                       : 11
Format                                   : JPEG
Codec ID                                 : jpeg
Duration                                 : 1h 34mn
Bit rate mode                            : Variable
Bit rate                                 : 1 559 bps
Width                                    : 640 pixels
Height                                   : 340 pixels
Display aspect ratio                     : 1.882
Frame rate mode                          : Variable
Frame rate                               : 0.004 fps
Minimum frame rate                       : 0.002 fps
Maximum frame rate                       : 0.022 fps
Color space                              : YUV
Chroma subsampling                       : 4:2:0
Bit depth                                : 8 bits
Compression mode                         : Lossy
Bits/(Pixel*Frame)                       : 1.791
Stream size                              : 1.11 MiB (0%)
Language                                 : Russian
Encoded date                             : UTC 2015-05-23 21:31:04
Tagged date                              : UTC 2015-05-23 21:31:05
Audio #1
ID                                       : 2
Format                                   : AAC
Format/Info                              : Advanced Audio Codec
Format profile                           : LC
Codec ID                                 : 40
Duration                                 : 1h 33mn
Bit rate mode                            : Variable
Bit rate                                 : 156 Kbps
Maximum bit rate                         : 233 Kbps
Channel(s)                               : 2 channels
Channel positions                        : Front: L R
Sampling rate                            : 48.0 KHz
Compression mode                         : Lossy
Stream size                              : 105 MiB (6%)
Language                                 : Russian
Encoded date                             : UTC 2015-05-23 21:30:08
Tagged date                              : UTC 2015-05-23 21:31:00
Audio #2
ID                                       : 3
Format                                   : AAC
Format/Info                              : Advanced Audio Codec
Format profile                           : LC
Codec ID                                 : 40
Duration                                 : 1h 33mn
Bit rate mode                            : Variable
Bit rate                                 : 155 Kbps
Maximum bit rate                         : 253 Kbps
Channel(s)                               : 2 channels
Channel positions                        : Front: L R
Sampling rate                            : 48.0 KHz
Compression mode                         : Lossy
Stream size                              : 104 MiB (6%)
Language                                 : English
Encoded date                             : UTC 2015-05-23 21:30:08
Tagged date                              : UTC 2015-05-23 21:31:00
Audio #3
ID                                       : 4
Format                                   : AAC
Format/Info                              : Advanced Audio Codec
Format profile                           : LC
Codec ID                                 : 40
Duration                                 : 1h 33mn
Bit rate mode                            : Variable
Bit rate                                 : 156 Kbps
Maximum bit rate                         : 256 Kbps
Channel(s)                               : 2 channels
Channel positions                        : Front: L R
Sampling rate                            : 48.0 KHz
Compression mode                         : Lossy
Stream size                              : 105 MiB (6%)
Language                                 : Ukrainian
Encoded date                             : UTC 2015-05-23 21:30:08
Tagged date                              : UTC 2015-05-23 21:31:00
Text #1
ID                                       : 5
Format                                   : Timed text
Muxing mode                              : sbtl
Codec ID                                 : tx3g
Duration                                 : 1h 33mn
Bit rate mode                            : Variable
Bit rate                                 : 0 bps
Stream size                              : 144 Bytes (0%)
Language                                 : Russian
Encoded date                             : UTC 2015-05-23 21:30:08
Tagged date                              : UTC 2015-05-23 21:30:56
Text #2
ID                                       : 6
Format                                   : Timed text
Muxing mode                              : sbtl
Codec ID                                 : tx3g
Duration                                 : 1h 33mn
Bit rate mode                            : Variable
Bit rate                                 : 0 bps
Stream size                              : 152 Bytes (0%)
Language                                 : Ukrainian
Encoded date                             : UTC 2015-05-23 21:30:08
Tagged date                              : UTC 2015-05-23 21:30:56
Text #3
ID                                       : 7
Format                                   : Timed text
Muxing mode                              : sbtl
Codec ID                                 : tx3g
Duration                                 : 1h 33mn
Bit rate mode                            : Variable
Bit rate                                 : 83 bps
Stream size                              : 56.8 KiB (0%)
Language                                 : Russian
Encoded date                             : UTC 2015-05-23 21:30:08
Tagged date                              : UTC 2015-05-23 21:30:56
Text #4
ID                                       : 8
Format                                   : Timed text
Muxing mode                              : sbtl
Codec ID                                 : tx3g
Duration                                 : 1h 33mn
Bit rate mode                            : Variable
Bit rate                                 : 84 bps
Stream size                              : 57.9 KiB (0%)
Language                                 : Ukrainian
Encoded date                             : UTC 2015-05-23 21:30:08
Tagged date                              : UTC 2015-05-23 21:30:56
Text #5
ID                                       : 9
Format                                   : Timed text
Muxing mode                              : sbtl
Codec ID                                 : tx3g
Duration                                 : 1h 23mn
Bit rate mode                            : Variable
Bit rate                                 : 56 bps
Stream size                              : 34.7 KiB (0%)
Language                                 : English
Encoded date                             : UTC 2015-05-23 21:30:08
Tagged date                              : UTC 2015-05-23 21:30:56
Text #6
ID                                       : 10
Format                                   : Apple text
Codec ID                                 : text
Duration                                 : 1h 34mn
Bit rate mode                            : Variable
Bit rate                                 : 1 bps
Stream size                              : 375 Bytes (0%)
Language                                 : English
Encoded date                             : UTC 2015-05-23 21:31:00
Tagged date                              : UTC 2015-05-23 21:31:00
Menu
00:00:00.000                             : 1
00:03:42.000                             : 2
00:07:26.000                             : 3
00:11:18.000                             : 4
00:14:25.000                             : 5
00:17:56.000                             : 6
00:21:04.000                             : 7
00:21:50.000                             : 8
00:25:16.000                             : 9
00:29:04.000                             : 10
00:33:11.000                             : 11
00:38:55.000                             : 12
00:41:27.000                             : 13
00:44:24.000                             : 14
00:46:47.000                             : 15
00:51:30.000                             : 16
00:56:21.000                             : 17
01:00:39.000                             : 18
01:03:50.000                             : 19
01:06:52.000                             : 20
01:09:39.000                             : 21
01:13:50.000                             : 22
01:18:06.000                             : 23
01:23:50.000                             : 24

x264 лог

x264 [info]: frame I:1553  Avg QP:15.78  size: 69827
x264 [info]: frame P:41227 Avg QP:19.18  size: 21175
x264 [info]: frame B:92997 Avg QP:21.84  size:  6192
x264 [info]: consecutive B-frames:  5.7%  8.7%  8.9% 67.7%  4.0%  4.2%  0.9%
x264 [info]: mb I  I16..4:  9.6% 60.8% 29.6%
x264 [info]: mb P  I16..4:  3.4% 13.5%  3.2%  P16..4: 34.4% 19.2% 11.1%  0.0%  0.0%    skip:15.2%
x264 [info]: mb B  I16..4:  0.4%  1.7%  0.5%  B16..8: 35.6%  8.2%  2.3%  direct: 3.5%  skip:47.8%  L0:38.2% L1:50.9% BI:11.0%
x264 [info]: 8x8 transform intra:66.0% inter:70.2%
x264 [info]: coded y,uvDC,uvAC intra: 72.4% 83.0% 51.3% inter: 19.7% 21.7% 4.1%
x264 [info]: i16 v,h,dc,p: 12% 20%  6% 61%
x264 [info]: i8 v,h,dc,ddl,ddr,vr,hd,vl,hu:  9% 12%  5%  9% 13% 12% 15% 11% 14%
x264 [info]: i4 v,h,dc,ddl,ddr,vr,hd,vl,hu:  9% 12%  3%  8% 14% 13% 15% 10% 15%
x264 [info]: i8c dc,h,v,p: 32% 30% 18% 21%
x264 [info]: Weighted P-Frames: Y:2.6% UV:1.6%
x264 [info]: ref P L0: 61.5% 10.9% 12.5%  4.3%  3.1%  2.4%  2.4%  1.4%  1.3%  0.2%  0.0%
x264 [info]: ref B L0: 85.4%  7.1%  3.2%  1.4%  1.1%  0.8%  0.8%  0.3%
x264 [info]: ref B L1: 95.6%  4.4%
x264 [info]: kb/s:2199.93
Скриншоты: -

Релиз подготовлен для просмотра на Apple TV, iPad, iPhone, iPod Touch.
Для просмотра данного релиза на компьютере с ОС Windows рекомендуется использовать VLC media player


Показать сообщения:    

Текущее время: 20-Авг 15:14

Часовой пояс: UTC + 3


Вы не можете начинать темы
Вы не можете отвечать на сообщения
Вы не можете редактировать свои сообщения
Вы не можете удалять свои сообщения
Вы не можете голосовать в опросах
Вы не можете прикреплять файлы к сообщениям
Вы не можете скачивать файлы

!ВНИМАНИЕ!
Сайт не предоставляет электронные версии произведений, а занимается лишь коллекционированием и каталогизацией ссылок, присылаемых и публикуемых на форуме нашими читателями. Если вы являетесь правообладателем какого-либо представленного материала и не желаете, чтобы ссылка на него находилась в нашем каталоге, свяжитесь с нами, и мы незамедлительно удалим ее. Файлы для обмена на трекере предоставлены пользователями сайта, и администрация не несет ответственности за их содержание. Просьба не заливать файлы, защищенные авторскими правами, а также файлы нелегального содержания!