۩ ‼ Вы находитесь на Бесплатном торрент-трекере TORRNADA.com ۩ Зарегистрируйтесь для получения полного доступа ко всем функциям сайта ! ۩ После регистрации подпишитесь на нашу рассылку в своём профиле ۩
Auto Web Pinger

 

[Цитировать]

Да и да (2014) WEB-DL [H.264/1080p-LQ]
«В ад с закрытыми глазами»
- Производство: Россия
Жанр: Драма
Режиссер: Валерия Гай Германика
Продюсер: Фёдор Бондарчук, Дмитрий Рудовский, Максим Королев
Актеры: Агния Кузнецова, Александр Виноградов, Владимир Дубосарский, Александр Горчилин, Оксана Земляникова, Юрий Трубин, Лариса Баранова, Николай Шептулин
Описание:
Паренек - начинающий современный художник, девушка - начинающая школьная учительница. Случайное сближение кладет начало горячей и короткой любви. Некрасивая случайность заставляет расстаться. Но однажды увидев мир глазами любимого, учительница вернулась в свой прежний мир художницей, и не может избавиться от нового зрения, от дара живописца: непрошеной памяти о несложившейся любви.

Дата мировой премьеры: 26 марта 2014
Дата российской премьеры: 26 июня 2014, «Art Pictures»
Ре-релиз (РФ): 12 марта 2015, «Централ Партнершип»
Продолжительность: 01:57:25
Качество: WEB-DL
Перевод: Не требуется (русский)
Субтитры: Отсутствуют
Видео: MPEG-4 AVC/H.264, 1920x1038, ~ 4793 kbps
Аудио: АС3, 6 ch, 384 kbps
Награды и номинации

MediaInfo

Общее
Уникальный идентификатор                 : 192349088316834902668324316611131017598 (0x90B5163ED94FE9ECAD0F52B163E9097E)
Полное имя                               : Да и да. (2015)1080p.mkv
Формат                                   : Matroska
Версия формата                           : Version 4 / Version 2
Размер файла                             : 4,33 Гбайт
Продолжительность                        : 1 ч. 57 м.
Общий поток                              : 5283 Кбит/сек
Дата кодирования                         : UTC 2015-07-09 18:12:06
Программа кодирования                    : mkvmerge v6.9.1 ('Blue Panther') 64bit built on Apr 18 2014 18:23:38
Библиотека кодирования                   : libebml v1.3.0 + libmatroska v1.4.1
Видео
Идентификатор                            : 1
Формат                                   : AVC
Формат/Информация                        : Advanced Video Codec
Профиль формата                          : High@L4
Параметр CABAC формата                   : Да
Параметр ReFrames формата                : 4 кадра
Идентификатор кодека                     : V_MPEG4/ISO/AVC
Продолжительность                        : 1 ч. 57 м.
Битрейт                                  : 4793 Кбит/сек
Ширина                                   : 1920 пикселей
Высота                                   : 1038 пикселей
Соотношение сторон                       : 1,85:1
Режим частоты кадров                     : Постоянный
Частота кадров                           : 24,000 кадра/сек
Цветовое пространство                    : YUV
Субдискретизация насыщенности            : 4:2:0
Битовая глубина                          : 8 бит
Тип развёртки                            : Прогрессивная
Бит/(Пиксели*Кадры)                      : 0.100
Размер потока                            : 3,93 Гбайт (91%)
Язык                                     : English
Default                                  : Да
Forced                                   : Нет
colour_range                             : Limited
Основные цвета                           : BT.709
Характеристики трансфера                 : BT.709
Коэффициенты матрицы                     : BT.709
Аудио
Идентификатор                            : 2
Формат                                   : AC-3
Формат/Информация                        : Audio Coding 3
Расширение режима                        : CM (complete main)
Параметр Endianness формата              : Big
Идентификатор кодека                     : A_AC3
Продолжительность                        : 1 ч. 57 м.
Вид битрейта                             : Постоянный
Битрейт                                  : 384 Кбит/сек
Каналы                                   : 6 каналов
Расположение каналов                     : Front: L C R, Side: L R, LFE
Частота                                  : 48,0 КГц
Метод сжатия                             : С потерями
Размер потока                            : 323 Мбайт (7%)
Язык                                     : Russian
Default                                  : Да
Forced                                   : Нет
Меню
00:00:00.000                             : en:Глава 1
00:05:34.000                             : en:Глава 2
00:10:01.000                             : en:Глава 3
00:17:16.000                             : en:Глава 4
00:21:07.000                             : en:Глава 5
00:29:59.000                             : en:Глава 6
00:34:22.000                             : en:Глава 7
00:39:59.000                             : en:Глава 8
00:46:21.000                             : en:Глава 9
00:51:40.000                             : en:Глава 10
00:56:34.000                             : en:Глава 11
01:01:35.000                             : en:Глава 12
01:05:36.000                             : en:Глава 13
01:10:34.000                             : en:Глава 14
01:14:46.000                             : en:Глава 15
01:19:31.000                             : en:Глава 16
01:22:56.000                             : en:Глава 17
01:28:19.000                             : en:Глава 18
01:33:39.000                             : en:Глава 19
01:37:49.000                             : en:Глава 20
01:41:43.000                             : en:Глава 21
01:47:19.000                             : en:Глава 22
Скриншоты:
Не жилим спасибо. Не забываем голосовать за трекер!!!


Показать сообщения:    

Текущее время: 24-Авг 06:05

Часовой пояс: UTC + 3


Вы не можете начинать темы
Вы не можете отвечать на сообщения
Вы не можете редактировать свои сообщения
Вы не можете удалять свои сообщения
Вы не можете голосовать в опросах
Вы не можете прикреплять файлы к сообщениям
Вы не можете скачивать файлы

!ВНИМАНИЕ!
Сайт не предоставляет электронные версии произведений, а занимается лишь коллекционированием и каталогизацией ссылок, присылаемых и публикуемых на форуме нашими читателями. Если вы являетесь правообладателем какого-либо представленного материала и не желаете, чтобы ссылка на него находилась в нашем каталоге, свяжитесь с нами, и мы незамедлительно удалим ее. Файлы для обмена на трекере предоставлены пользователями сайта, и администрация не несет ответственности за их содержание. Просьба не заливать файлы, защищенные авторскими правами, а также файлы нелегального содержания!