۩ ‼ Вы находитесь на Бесплатном торрент-трекере TORRNADA.com ۩ Зарегистрируйтесь для получения полного доступа ко всем функциям сайта ! ۩ После регистрации подпишитесь на нашу рассылку в своём профиле ۩
Auto Web Pinger

 

[Цитировать]

Человек, который любил танцующую кошку / The Man Who Loved Cat Dancing (1973) DVDRip [H.264] - Производство: США / Metro-Goldwyn-Mayer (MGM)
Жанр: Вестерн
Режиссер: Ричард С. Сарафьян
Актеры: Берт Рейнолдс, Сара Майлз, Ли Дж. Кобб, Джек Уорден, Джордж Хэмилтон, Бо Хопкинс, Роберт Доннер, Сэнди МакПик, Нэнси Мэлоун
Описание:
Танцующая Кошка — имя изнасилованной и убитой жены-индианки главного героя фильма Джея Гробарта. Во время ограбления поезда, он с напарниками захватывает, помимо добычи, случайную свидетельницу по имени Катерина, сбежавшую от своего жестокого мужа Крокера. После ограбления банда решает направиться в индейскую деревню, где до трагедии Джей жил с Танцующей Кошкой… Понемногу Джей и Катерина проникаются симпатией к друг другу. Но не всё так просто и легко. По их следу идёт охотник за головами, посланный мужем Катерины, чтобы вернуть её домой…

Продолжительность: 02:03:21
Качество видео: DVDRip
Перевод: Авторский (А.Гаврилов)
Субтитры: Отсутствуют
Видео: AVC/H.264, 720x304, 1838 Kbps
Аудио: AC3, 2 ch, 192 Kbps

Mediainfo:

General
Unique ID                                : 198859396216278374202037205419702051858 (0x959AED34F95A6123AD207BB0B9B76412)
Complete name                            : F:\Downloads\Человек, который любил танцующую кошку.mkv
Format                                   : Matroska
Format version                           : Version 4 / Version 2
File size                                : 1.75 GiB
Duration                                 : 2h 3mn
Overall bit rate                         : 2 032 Kbps
Encoded date                             : UTC 2015-07-09 13:33:20
Writing application                      : mkvmerge v7.0.0 ('Where We Going') 32bit built on Jun  9 2014 15:08:34
Writing library                          : libebml v1.3.0 + libmatroska v1.4.1
DURATION                                 : 02:03:21.632000000
NUMBER_OF_FRAMES                         : 231301
NUMBER_OF_BYTES                          : 177639168
_STATISTICS_WRITING_APP                  : mkvmerge v7.0.0 ('Where We Going') 32bit built on Jun  9 2014 15:08:34
_STATISTICS_WRITING_DATE_UTC             : 2015-07-09 13:33:20
_STATISTICS_TAGS                         : BPS DURATION NUMBER_OF_FRAMES NUMBER_OF_BYTES
Video
ID                                       : 1
Format                                   : AVC
Format/Info                              : Advanced Video Codec
Format profile                           : High@L3.1
Format settings, CABAC                   : Yes
Format settings, ReFrames                : 8 frames
Codec ID                                 : V_MPEG4/ISO/AVC
Duration                                 : 2h 3mn
Bit rate                                 : 1 838 Kbps
Width                                    : 720 pixels
Height                                   : 304 pixels
Display aspect ratio                     : 2.35:1
Frame rate mode                          : Constant
Frame rate                               : 25.000 fps
Color space                              : YUV
Chroma subsampling                       : 4:2:0
Bit depth                                : 8 bits
Scan type                                : Progressive
Bits/(Pixel*Frame)                       : 0.336
Stream size                              : 1.55 GiB (89%)
Title                                    : The Man Who Loved Cat Dancing
Writing library                          : x264 core 125 r2208 d9d2288
Encoding settings                        : cabac=1 / ref=8 / deblock=1:-1:-1 / analyse=0x3:0x133 / me=umh / subme=9 / psy=1 / psy_rd=1.00:0.10 / mixed_ref=1 / me_range=32 / chroma_me=1 / trellis=2 / 8x8dct=1 / cqm=0 / deadzone=21,11 / fast_pskip=0 / chroma_qp_offset=-3 / threads=6 / lookahead_threads=1 / sliced_threads=0 / nr=0 / decimate=1 / interlaced=0 / bluray_compat=0 / constrained_intra=0 / bframes=3 / b_pyramid=2 / b_adapt=2 / b_bias=0 / direct=3 / weightb=1 / open_gop=0 / weightp=2 / keyint=250 / keyint_min=25 / scenecut=40 / intra_refresh=0 / rc_lookahead=60 / rc=2pass / mbtree=1 / bitrate=1838 / ratetol=1.0 / qcomp=0.60 / qpmin=0 / qpmax=69 / qpstep=4 / cplxblur=20.0 / qblur=0.5 / ip_ratio=1.40 / aq=1:1.00
Language                                 : English
Default                                  : Yes
Forced                                   : No
Audio
ID                                       : 2
Format                                   : AC-3
Format/Info                              : Audio Coding 3
Mode extension                           : CM (complete main)
Format settings, Endianness              : Big
Codec ID                                 : A_AC3
Duration                                 : 2h 3mn
Bit rate mode                            : Constant
Bit rate                                 : 192 Kbps
Channel(s)                               : 2 channels
Channel positions                        : Front: L R
Sampling rate                            : 48.0 KHz
Bit depth                                : 16 bits
Compression mode                         : Lossy
Stream size                              : 169 MiB (9%)
Title                                    : Авторский, А.Гаврилов
Language                                 : Russian
Default                                  : Yes
Forced                                   : No
Скриншоты:

Дополнительные скриншоты:

Не жилим спасибо. Не забываем голосовать за трекер!!!


Показать сообщения:    

Текущее время: 18-Авг 16:20

Часовой пояс: UTC + 3


Вы не можете начинать темы
Вы не можете отвечать на сообщения
Вы не можете редактировать свои сообщения
Вы не можете удалять свои сообщения
Вы не можете голосовать в опросах
Вы не можете прикреплять файлы к сообщениям
Вы не можете скачивать файлы

!ВНИМАНИЕ!
Сайт не предоставляет электронные версии произведений, а занимается лишь коллекционированием и каталогизацией ссылок, присылаемых и публикуемых на форуме нашими читателями. Если вы являетесь правообладателем какого-либо представленного материала и не желаете, чтобы ссылка на него находилась в нашем каталоге, свяжитесь с нами, и мы незамедлительно удалим ее. Файлы для обмена на трекере предоставлены пользователями сайта, и администрация не несет ответственности за их содержание. Просьба не заливать файлы, защищенные авторскими правами, а также файлы нелегального содержания!