۩ ‼ Вы находитесь на Бесплатном торрент-трекере TORRNADA.com ۩ Зарегистрируйтесь для получения полного доступа ко всем функциям сайта ! ۩ После регистрации подпишитесь на нашу рассылку в своём профиле ۩
Auto Web Pinger

 

[Цитировать]

Гражданка Катерина (2015) WEB-DLRip [H.264/1080p-LQ] (серии 1-4 из 4)- Производство: "Mars Media", Россия
Жанр: мелодрама
Режиссер: Наталья Углицких
Актеры: Валерия Ланская, Кирилл Гребенщиков, Яна Крайнова, Светлана Милованова, Валерий Новиков, Сергей Губанов, Анастасия Денисова, Маргарита Дьяченкова, Алеся Гузько, Егор Клинаев, Никита Тарасов, Дарья Андреева
Описание:
Жительница Молдовы Катерина приезжает в Москву в надежде получить опеку над осиротевшей маленькой сестренкой. Чтобы ускорить оформление гражданства, Катерина решается на фиктивный брак. Однако узнав получше своего фиктивного мужа, Катерина влюбляется в него…

Дата российской премьеры: 17.05.2015
Продолжительность: ~ 00:45:00 серия
Качество видео: WEB-DLRip
Видео: AVC/H.264, 1912x1072 (16:9), ~4000 Kbps
Аудио: AC3, 2 ch, 192 Kbps

MediaInfo:

Общее
Уникальный идентификатор                 : 225634047665716085659823376857009707073 (0xA9BF897171B2136E9FA674B91BE35841)
Полное имя                               : E:\DOWNLOADS\Гражданка Катерина (2015) WEB-DLRip 1080\Гражданка Катерина - 01 серия.mkv
Формат                                   : Matroska
Версия формата                           : Version 2
Размер файла                             : 1,33 Гбайт
Продолжительность                        : 45 м.
Режим общего битрейта                    : Переменный
Общий поток                              : 4196 Кбит/сек
Дата кодирования                         : UTC 2015-07-08 16:30:30
Программа кодирования                    : mkvmerge v6.1.0 ('Old Devil') built on Mar  4 2013 09:10:42
Библиотека кодирования                   : libebml v1.3.0 + libmatroska v1.4.0
Видео
Идентификатор                            : 1
Формат                                   : AVC
Формат/Информация                        : Advanced Video Codec
Профиль формата                          : High@L4.0
Параметр CABAC формата                   : Да
Параметр ReFrames формата                : 3 кадра
Идентификатор кодека                     : V_MPEG4/ISO/AVC
Продолжительность                        : 45 м.
Вид битрейта                             : Переменный
Битрейт                                  : 4000 Кбит/сек
Максимальный битрейт                     : 40,0 Мбит/сек
Ширина                                   : 1912 пикселей
Высота                                   : 1072 пикселя
Соотношение сторон                       : 16:9
Режим частоты кадров                     : Постоянный
Частота кадров                           : 25,000 кадров/сек
Цветовое пространство                    : YUV
Субдискретизация насыщенности            : 4:2:0
Битовая глубина                          : 8 бит
Тип развёртки                            : Прогрессивная
Бит/(Пиксели*Кадры)                      : 0.078
Размер потока                            : 1,24 Гбайт (93%)
Библиотека кодирования                   : x264 core 142 r2389 956c8d8
Настройки программы                      : cabac=1 / ref=3 / deblock=1:0:0 / analyse=0x3:0x133 / me=umh / subme=7 / psy=1 / psy_rd=1.00:0.00 / mixed_ref=1 / me_range=32 / chroma_me=1 / trellis=2 / 8x8dct=1 / cqm=0 / deadzone=21,11 / fast_pskip=1 / chroma_qp_offset=-2 / threads=12 / lookahead_threads=2 / sliced_threads=0 / nr=0 / decimate=1 / interlaced=0 / bluray_compat=0 / constrained_intra=0 / bframes=0 / weightp=0 / keyint=75 / keyint_min=26 / scenecut=40 / intra_refresh=0 / rc_lookahead=50 / rc=2pass / mbtree=0 / bitrate=4000 / ratetol=1.0 / qcomp=0.20 / qpmin=10 / qpmax=51 / qpstep=4 / cplxblur=20.0 / qblur=0.5 / vbv_maxrate=5000 / vbv_bufsize=5000 / nal_hrd=none / filler=0 / ip_ratio=1.40 / aq=1:1.0
Default                                  : Да
Forced                                   : Нет
Основные цвета                           : BT.709
Характеристики трансфера                 : BT.709
Коэффициенты матрицы                     : BT.709
colour_range                             : Limited
Аудио
Идентификатор                            : 2
Формат                                   : AC-3
Формат/Информация                        : Audio Coding 3
Расширение режима                        : CM (complete main)
Параметр Endianness формата              : Big
Идентификатор кодека                     : A_AC3
Продолжительность                        : 45 м.
Вид битрейта                             : Постоянный
Битрейт                                  : 192 Кбит/сек
Каналы                                   : 2 канала
Расположение каналов                     : Front: L R
Частота                                  : 44,1 КГц
Битовая глубина                          : 16 бит
Метод сжатия                             : С потерями
Размер потока                            : 62,2 Мбайт (5%)
Default                                  : Да
Forced                                   : Нет
Скриншоты:
Не жилим спасибо. Не забываем голосовать за трекер!!!


Показать сообщения:    

Текущее время: 20-Июл 17:36

Часовой пояс: UTC + 3


Вы не можете начинать темы
Вы не можете отвечать на сообщения
Вы не можете редактировать свои сообщения
Вы не можете удалять свои сообщения
Вы не можете голосовать в опросах
Вы не можете прикреплять файлы к сообщениям
Вы не можете скачивать файлы

!ВНИМАНИЕ!
Сайт не предоставляет электронные версии произведений, а занимается лишь коллекционированием и каталогизацией ссылок, присылаемых и публикуемых на форуме нашими читателями. Если вы являетесь правообладателем какого-либо представленного материала и не желаете, чтобы ссылка на него находилась в нашем каталоге, свяжитесь с нами, и мы незамедлительно удалим ее. Файлы для обмена на трекере предоставлены пользователями сайта, и администрация не несет ответственности за их содержание. Просьба не заливать файлы, защищенные авторскими правами, а также файлы нелегального содержания!